开启左侧

[剧情片] 科拉尔金矿2 / 黄金之城:第二章.K.G.F.Chapter.2.2022.1080p.10bit.Blu-ray.Hindi.DDP5.1.ESub.HEVC-NmCT 8.90GB

Hao8k资源组 发表于 2024-5-30 11:03:35 | 显示全部楼层 |阅读模式

马上注册 Hao8k.cn ,获得更好的体验,让你轻松玩转Hao8k

您需要 登录 才可以下载或查看,没有帐号?立即注册

x
002602zxkbvvbwrrzrfe4r.jpg.jpg



译  名 科拉尔金矿2 / 黄金之城:第二章
片  名 K.G.F: Chapter 2
年  代 2022
产  地 印度
类  别 剧情 / 动作 / 惊悚 / 犯罪
语  言 卡纳达语 / 印地语 / 泰米尔语 / 马拉雅拉姆语 / 泰卢固语
上映日期 2022-04-14(印度)
IMDb评星  ★★★★★★★★✦☆
IMDb评分  8.3/10 from 150,502 users
豆瓣评星 ★★★☆☆
豆瓣评分 5.9/10 from 728 users
片  长 168分钟
导  演 普拉桑斯·尼尔 / Prashanth Neel
演  员 亚什 / Yash | 饰 洛基
      桑杰·达特 / Sanjay Dutt | 饰 Adheera
      斯里尼迪·谢蒂 / Srinidhi Shetty  | 饰 Reena
      米尔扎·奥韦斯·阿拉姆 / Mirza Owais Alam | 饰 Special Appearance
      莱薇娜·谭登 / Raveena Tandon | 饰 Ramika Sen
      阿南特·纳格 / Anant Nag  | 饰 Anand Ingalagi
      普拉卡什·拉贾 / Prakash Raj | 饰 Vijayendra Ingalgi
      阿卡纳·乔伊斯 / Archana Jois  | 饰 Shanthamma
      拉梅什·英迪拉 / Ramesh Indira | 饰 Suryavardhan
      拉姆昌德拉·拉祖 / Ramachandra Raju | 饰 Garuda
      维奈·比达帕 / Vinay Bidappa | 饰 Virat
      阿丘特·库马尔 / Achyuth Kumar | 饰 Guru Pandian
      马拉维卡·阿维纳什 / Malavika Avinash  | 饰 Deepa Hegde
      拉奥·拉梅什 / Rao Ramesh  | 饰 Kanneganti Raghavan
      B·S·阿维纳什 / B.S. Avinash  | 饰 Andrews
      T·S·那伽巴拉纳 / T.S. Nagabharana
编  剧 普拉桑斯·尼尔 / Prashanth Neel

简  介

在血腥的科拉尔金矿区,洛基的名字让他的敌人感到恐惧。 他的盟友仰赖于他,政府却将他视为对法律和秩序的威胁。 洛奇必须与来自四面八方的威胁作斗争,以获得无可挑战的霸主地位。


影片参数
  1. General
  2. Unique ID                   : 79801173353701356238720668695425133459 (0x3C09259D978D09A4C78088C072072B93)
  3. Complete name               : K.G.F.Chapter.2.2022.1080p.10bit.Blu-ray.Hindi.DDP5.1.ESub.HEVC-NmCT.mkv
  4. Format                      : Matroska
  5. Format version              : Version 4
  6. File size                   : 8.90 GiB
  7. Duration                    : 2 h 46 min
  8. Overall bit rate            : 7 674 kb/s
  9. Frame rate                  : 23.976 FPS
  10. Movie name                  : K.G.F-Chapter 2 [2022] ~ NmCT
  11. Encoded date                : 2024-05-27 04:44:01 UTC
  12. Writing application         : mkvmerge v84.0 (''Sleeper'') 64-bit
  13. Writing library             : libebml v1.4.5 + libmatroska v1.7.1
  14. Cover                       : Yes
  15. Attachments                 : Cover.jpg

  16. Video
  17. ID                          : 1
  18. Format                      : HEVC
  19. Format/Info                 : High Efficiency Video Coding
  20. Format profile              : Main 10@L4.1@High
  21. Codec ID                    : V_MPEGH/ISO/HEVC
  22. Duration                    : 2 h 46 min
  23. Bit rate                    : 7 032 kb/s
  24. Width                       : 1 920 pixels
  25. Height                      : 820 pixels
  26. Display aspect ratio        : 2.35:1
  27. Frame rate mode             : Constant
  28. Frame rate                  : 23.976 (24000/1001) FPS
  29. Color space                 : YUV
  30. Chroma subsampling          : 4:2:0
  31. Bit depth                   : 10 bits
  32. Bits/(Pixel*Frame)          : 0.186
  33. Stream size                 : 8.16 GiB (92%)
  34. Default                     : Yes
  35. Forced                      : No
  36. Color range                 : Limited
  37. Color primaries             : BT.709
  38. Transfer characteristics    : BT.709
  39. Matrix coefficients         : BT.709

  40. Audio
  41. ID                          : 2
  42. Format                      : E-AC-3
  43. Format/Info                 : Enhanced AC-3
  44. Commercial name             : Dolby Digital Plus
  45. Codec ID                    : A_EAC3
  46. Duration                    : 2 h 46 min
  47. Bit rate mode               : Constant
  48. Bit rate                    : 640 kb/s
  49. Channel(s)                  : 6 channels
  50. Channel layout              : L R C LFE Ls Rs
  51. Sampling rate               : 48.0 kHz
  52. Frame rate                  : 31.250 FPS (1536 SPF)
  53. Compression mode            : Lossy
  54. Stream size                 : 760 MiB (8%)
  55. Title                       : [Dolby Digital 5.1] [48kHz] [640kb/s]
  56. Language                    : Hindi
  57. Service kind                : Complete Main
  58. Default                     : Yes
  59. Forced                      : No

  60. Text #1
  61. ID                          : 3
  62. Format                      : UTF-8
  63. Codec ID                    : S_TEXT/UTF8
  64. Codec ID/Info               : UTF-8 Plain Text
  65. Duration                    : 2 h 42 min
  66. Bit rate                    : 50 b/s
  67. Frame rate                  : 0.213 FPS
  68. Count of elements           : 2078
  69. Stream size                 : 59.7 KiB (0%)
  70. Title                       : English [SDH]
  71. Language                    : English
  72. Default                     : Yes
  73. Forced                      : Yes

  74. Text #2
  75. ID                          : 4
  76. Format                      : UTF-8
  77. Codec ID                    : S_TEXT/UTF8
  78. Codec ID/Info               : UTF-8 Plain Text
  79. Duration                    : 2 h 42 min
  80. Bit rate                    : 50 b/s
  81. Frame rate                  : 0.213 FPS
  82. Count of elements           : 2078
  83. Stream size                 : 59.7 KiB (0%)
  84. Title                       : English
  85. Language                    : English
  86. Default                     : No
  87. Forced                      : No
复制代码

002611twae0s0onys0qae0.png.jpg



Hao8k.cn提示您 点击下方附件名称 即可开始下载

科拉尔金矿2 / 黄金之城:第二章.K.G.F.Chapter.2.2022.1080p.10bit.Blu-ray.Hindi.DDP5.1.ESub.HEVC-NmCT 8.90GB

K.G.F.Chapter.2.2022.1080p.10bit.Blu-ray.Hindi.DDP5.1.ESub.HEVC-NmCT.torrent ( 178.96 KB )

回复

使用道具 举报

全部回复3 显示全部楼层
비를맞다 发表于 2024-5-30 13:10:36 | 显示全部楼层
谢谢分享,好人一生平安
回复

使用道具 举报

xzooooxz 发表于 2024-6-11 10:45:59 | 显示全部楼层
居然有了第二季
回复

使用道具 举报

dadataozi 发表于 2024-6-16 18:28:43 | 显示全部楼层
谢谢楼主分享
回复

使用道具 举报

声明:您在社区发表的所有信息仅代表用户个人观点,与本网站立场无关,希望各位烧友理性发言,不发表违法国家法律禁止的话题。

您需要登录后才可以回帖 登录 | 立即注册

本版积分规则

开通会员 每日签到 返回顶部 返回列表