开启左侧

绿色星球 [英版原盘 DIY简繁/双语特效字幕].The.Green.Planet.2022.GBR.UHD.Blu-ray.Repack.2160p.HEVC.TrueHD.7.1.Atmos-TAG 121.72GB

Hao8k资源组 发表于 2023-10-16 22:51:32 | 显示全部楼层 |阅读模式
画质标准:
2160p 
音质编码:
Dolby-Atmos Dolby-TrueHD 
电影声道:
7.1声道


电影封面

马上注册 Hao8k.cn ,获得更好的体验,让你轻松玩转Hao8k

您需要 登录 才可以下载或查看,没有帐号?立即注册

x
205141iftq5vgkw76k7dft.jpg.jpg


译  名 绿色星球
  节目是首个通过沉浸式的呈现方式聚焦植物的纪录片,为观众们展示了这个低调秘密、不为人知的植物世界。它们既能与动物形成互惠互利的关系,也可以像我们星球上的任何生物一样具有攻击性、竞争性和戏剧性。为争夺光照、空间、营养和为家族开枝散叶的机会,它们会与竞争对手、动物和元素进行致命的斗争。
  本片展示了跨越20多年的新发现,同时揭示了相互紧密联系的植物世界。专业摄像机使我们拥有超越人眼的能力,比以往任何时候都观察的更贴近与深入。
  全新的故事,前所未见的动植物行为,令人惊讶的英雄,带你从植物的角度看地球。



影片参数
  1. Disc Title: The Green Planet - Disc 1
  2. Disc Label: The Green Planet - Disc 1
  3. Disc Size: 74,938,708,078 bytes
  4. Protection: AACS2
  5. Extras: Ultra HD
  6. BDInfo: 0.7.5.5

  7. PLAYLIST REPORT:

  8. Name: 00033.MPLS
  9. Length: 2:33:46.342 (h:m:s.ms)
  10. Size: 74,436,833,280 bytes
  11. Total Bitrate: 64.54 Mbps

  12. VIDEO:

  13. Codec Bitrate Description
  14. ----- ------- -----------
  15. MPEG-H HEVC Video 52764 kbps 2160p / 23.976 fps / 16:9 / Main 10 @ Level 5.1 @ High / 10 bits / HDR10 / BT.2020

  16. AUDIO:

  17. Codec Language Bitrate Description
  18. ----- -------- ------- -----------
  19. DTS-HD Master Audio English 2102 kbps 5.1 / 48 kHz / 2102 kbps / 16-bit (DTS Core: 5.1 / 48 kHz / 1509 kbps / 16-bit)
  20. Dolby TrueHD/Atmos Audio English 5372 kbps 7.1 / 48 kHz / 4732 kbps / 24-bit (AC3 Embedded: 5.1-EX / 48 kHz / 640 kbps / DN -31dB)

  21. SUBTITLES:

  22. Codec Language Bitrate Description
  23. ----- -------- ------- -----------
  24. Presentation Graphics English 32.581 kbps
  25. Presentation Graphics Chinese 39.214 kbps 简体特效
  26. Presentation Graphics Chinese 39.182 kbps 繁体特效
  27. Presentation Graphics Chinese 60.428 kbps 简英双语
  28. Presentation Graphics Chinese 60.312 kbps 繁英双语

  29. FILES:

  30. Name Time In Length Size Total Bitrate
  31. ---- ------- ------ ---- -------------
  32. 00018.M2TS 0:00:00.000 0:50:22.561 24,747,472,896 65,501
  33. 00019.M2TS 0:50:22.561 0:52:06.832 24,963,858,432 63,870
  34. 00020.M2TS 1:42:29.393 0:51:16.948 24,725,501,952 64,286
复制代码


影片参数
  1. Disc Title: The Green Planet - Disc 2
  2. Disc Label: The Green Planet - Disc 2
  3. Disc Size: 55,758,981,056 bytes
  4. Protection: AACS2
  5. Extras: Ultra HD
  6. BDInfo: 0.7.5.5

  7. PLAYLIST REPORT:

  8. Name: 00033.MPLS
  9. Length: 1:44:02.819 (h:m:s.ms)
  10. Size: 46,078,316,544 bytes
  11. Total Bitrate: 59.05 Mbps

  12. VIDEO:

  13. Codec Bitrate Description
  14. ----- ------- -----------
  15. MPEG-H HEVC Video 47846 kbps 2160p / 23.976 fps / 16:9 / Main 10 @ Level 5.1 @ High / 10 bits / HDR10 / BT.2020

  16. AUDIO:

  17. Codec Language Bitrate Description
  18. ----- -------- ------- -----------
  19. DTS-HD Master Audio English 2062 kbps 5.1 / 48 kHz / 2062 kbps / 16-bit (DTS Core: 5.1 / 48 kHz / 1509 kbps / 16-bit)
  20. Dolby TrueHD/Atmos Audio English 5005 kbps 7.1 / 48 kHz / 4365 kbps / 24-bit (AC3 Embedded: 5.1-EX / 48 kHz / 640 kbps / DN -31dB)

  21. SUBTITLES:

  22. Codec Language Bitrate Description
  23. ----- -------- ------- -----------
  24. Presentation Graphics English 38.966 kbps
  25. Presentation Graphics Chinese 44.771 kbps 简体特效
  26. Presentation Graphics Chinese 44.587 kbps 繁体特效
  27. Presentation Graphics Chinese 69.579 kbps 简英双语
  28. Presentation Graphics Chinese 69.387 kbps 繁英双语

  29. FILES:

  30. Name Time In Length Size Total Bitrate
  31. ---- ------- ------ ---- -------------
  32. 00018.M2TS 0:00:00.000 0:52:08.083 22,865,356,800 58,478
  33. 00019.M2TS 0:52:08.083 0:51:54.736 23,212,959,744 59,621
复制代码
205143jhr80hcvh9dltoz8.jpg.jpg


205145adyy1oo04r34pk53.jpg.jpg


205148myp1popzjj2k2xky.jpg.jpg


205151bh8f5fyqho5ffx82.jpg.jpg


205152oqyfm1r6zt68hlky.jpg.jpg


205154rat5g5lkpmgvnakv.jpg.jpg


205154b8smgqmm8izlowdi.jpg.jpg



Hao8k.cn提示您 点击下方附件名称 即可开始下载

绿色星球 [英版原盘 DIY简繁/双语特效字幕].The.Green.Planet.2022.GBR.UHD.Blu-ray.Repack.2160p.HEVC.TrueHD.7.1.Atmos-TAG 121.72GB

绿色星球.The Green Planet 2022 GBR UHD Blu-ray 2160p HEVC TrueHD 7.1 Atmos-TAG.torrent ( 305.39 KB )

回复

使用道具 举报

全部回复2 显示全部楼层
비를맞다 发表于 2024-1-25 12:59:36 | 显示全部楼层
谢谢楼主分享!!!!!!!!!
回复

使用道具 举报

George 发表于 2024-6-9 17:39:00 | 显示全部楼层
谢谢分享
回复

使用道具 举报

声明:您在社区发表的所有信息仅代表用户个人观点,与本网站立场无关,希望各位烧友理性发言,不发表违法国家法律禁止的话题。

您需要登录后才可以回帖 登录 | 立即注册

本版积分规则

开通会员 每日签到 返回顶部 返回列表