开启左侧

不要见怪.No.Hard.Feelings.2023.2160p.Dolby.Vision.And.HDR10.ENG.And.ESP.LATINO.DDP5.1.DV.x265.MP4-BEN.THE.MEN 19.09GB

Hao8k资源组 发表于 2023-8-13 01:11:21 | 显示全部楼层 |阅读模式
画质标准:
2160p 杜比视界 
音质编码:
其它DDP 
电影声道:
5.1声道


电影封面

马上注册 Hao8k.cn ,获得更好的体验,让你轻松玩转Hao8k

您需要 登录 才可以下载或查看,没有帐号?立即注册

x
p2891129316.jpg.jpg


译  名 不要见怪 / 调教你处男(港) / 珍爱硬起来(台) / 请勿见怪
片  名 No Hard Feelings
年  代 2023
产  地 美国
类  别 喜剧 / 爱情
语  言 英语
上映日期 2023-06-15(中国香港) / 2023-06-23(美国)
IMDb评星  ★★★★★★✦☆☆☆
IMDb评分  6.6/10 from 29,475 users
IMDb链接  https://www.imdb.com/title/tt15671028/
豆瓣评星 ★★★✦☆
豆瓣评分 6.5/10 from 9,480 users
豆瓣链接 https://movie.douban.com/subject/35733431/
片  长 103分钟
导  演 吉恩·斯图普尼兹基 / Gene Stupnitsky
演  员 詹妮弗·劳伦斯 / Jennifer Lawrence | 饰 Maddie Barker
      安德鲁·巴特·费尔德曼 / Andrew Barth Feldman | 饰 Percy Becker
      劳拉·本纳蒂 / Laura Benanti | 饰 Allison Becker
      马修·布罗德里克 / Matthew Broderick | 饰 Laird Becker
      娜塔丽·莫瑞丝 / Natalie Morales | 饰 Sara
      斯科特·麦克阿瑟 / Scott MacArthur | 饰 Jim
      艾邦·摩斯-巴克拉赫 / Ebon Moss-Bachrach | 饰 Gary
      凯尔·穆尼 / Kyle Mooney | 饰 Jody
      哈桑·明哈杰 / Hasan Minhaj | 饰 Doug
      乔丹·门多萨 / Jordan Mendoza | 饰 Crispin
      阿马利娅·尤奥 / Amalia Yoo | 饰 Natalie
      阿莉西娅·乔伊·鲍威尔 / Alysia Joy Powell | 饰 Fern
      昆西·杜恩-巴克 / Quincy Dunn-Baker | 饰 Travis
      马修·诺斯卡 / Matthew Noszka | 饰 Hot Guy from Bar
      扎恩·迈克拉农 / Zahn McClarnon | 饰 Gabe Sawyer, Surfing Lawyer
      麦迪逊·奥登堡 / Madison Odenborg | 饰 Melanie
      克里斯蒂安·加尔维斯 / Christian Galvis | 饰 Gorgeous Italian Guy
      马特·沃尔顿 / Matt Walton | 饰 Wallstreet Guy
      克里斯蒂娜·卡蒂奇斯 / Christina Catechis | 饰 Waitress
      克里斯多福‧贝里 / Christopher Bailey | 饰 Beach Bully
      伊森·吕特 / Eason Rytter | 饰 Beach Bully
      艾碧该·胡普 / Abigail Hupp | 饰 Beach Bully
      阿奇·米勒 / Achi Miller | 饰 Teen
      布伦丹·基斯珀特 / Brendan Kispert | 饰 Athlete
      伊森·爱德华·梅斯 / Ethan Edward Metz | 饰 Athlete
      阿莱娜·苏格纳 / Alaina Surgener | 饰 Teen Girl
      塞加尔·乔希 / Sejal Joshi | 饰 Teen Girl
      维克多·费尔哈格 / Victor Verhaeghe | 饰 Party Dad
      凯利·蕾·奥唐纳 / Kelley Rae O''Donnell | 饰 Party Mother
      凯蒂·约翰根 / Katie Johantgen | 饰 Barista
      阿里·弗兰克尔 / Ari Frenkel | 饰 Recent Alumnus
      卢卡·帕多凡 / Luca Padovan | 饰 Frail Boy at House Party
      约翰·德玛尔 / John DeMari | 饰 House Party Teen Who Text in Bed
      格兰特·哈里森·马特奥 / Grant Harrison Mateo | 饰 House Party Teen Who Text in Bed
      麦迪逊·麦克布莱德 / Madison McBride | 饰 House Party Teen Who Text in Bed
      本·海涅曼 / Ben Heineman | 饰 House Party Teen Who Text in Bed
      朱莉娅·德莫拉·布莱恩 / Julia DeMoura Braine | 饰 House Party Teen Who Text in Bed
      索菲·塔南鲍姆 / Sophie Tananbaum | 饰 House Party Teen Who Text in Bed
      梅丽莎·利曼 / Melissa Lehman | 饰 Kelly
      伊莎贝尔·费舍尔 / Isabelle Fisher | 饰 Kelly''s Friend
      布赖恩·卡利 / Brian Calì | 饰 Mechanic Buick
      利奥·伊斯顿·凯利 / Leo Easton Kelly | 饰 Laser Tag Kid
      达伦·瓦里诺蒂 / Darren Valinotti | 饰 Arcade Kid
      亚历克斯·托马斯 / Alex Tomais | 饰 Inez
      维多利亚·丹尼尔科-佩特罗夫斯卡娅 / Victorya Danylko-Petrovskaya | 饰 Cheerleader
      丹妮拉·麦斯米兰 / Danielia Maximillian | 饰 Hostess
      劳伦·雅弗 / Lauren Yaffe | 饰 Pedestrian / Restaurant Patron
编  剧 吉恩·斯图普尼兹基 / Gene Stupnitsky
      约翰·菲利普斯 / John Phillips
简  介

想保住车和母亲留下房子的Uber司机Maddie(詹妮弗·劳伦斯 饰),答应了一对富豪夫妇的请求,替他们内向又古怪的19岁儿子Percy(安德鲁·巴特·费尔德曼 饰)在上大学之前破处,然而Maddie很快就发现事情并没有她想象中那么简单。

影片参数
  1. Video
  2. ID                                       : 1
  3. Format                                   : HEVC
  4. Format/Info                              : High Efficiency Video Coding
  5. Format profile                           : Main 10@L5@High
  6. HDR format                               : Dolby Vision, Version 1.0, dvhe.08.06, BL+RPU, HDR10 compatible / SMPTE ST 2086, HDR10 compatible
  7. Codec ID                                 : hev1
  8. Codec ID/Info                            : High Efficiency Video Coding
  9. Duration                                 : 1 h 43 min
  10. Source duration                          : 1 h 43 min
  11. Bit rate                                 : 24.5 Mb/s
  12. Width                                    : 3 836 pixels
  13. Height                                   : 2 072 pixels
  14. Display aspect ratio                     : 1.85:1
  15. Frame rate mode                          : Variable
  16. Frame rate                               : 23.976 (24000/1001) FPS
  17. Minimum frame rate                       : 22.727 FPS
  18. Maximum frame rate                       : 24.390 FPS
  19. Color space                              : YUV
  20. Chroma subsampling                       : 4:2:0 (Type 2)
  21. Bit depth                                : 10 bits
  22. Bits/(Pixel*Frame)                       : 0.129
  23. Stream size                              : 17.7 GiB (93%)
  24. Source stream size                       : 17.7 GiB (93%)
  25. Encoded date                             : 2023-08-10 01:21:01 UTC
  26. Tagged date                              : 2023-08-10 01:21:01 UTC
  27. Color range                              : Limited
  28. Color primaries                          : BT.2020
  29. Transfer characteristics                 : PQ
  30. Matrix coefficients                      : BT.2020 non-constant
  31. Mastering display color primaries        : BT.2020
  32. Mastering display luminance              : min: 0.0050 cd/m2, max: 4000 cd/m2
  33. Maximum Content Light Level              : 1001 cd/m2
  34. Maximum Frame-Average Light Level        : 274 cd/m2
  35. mdhd_Duration                            : 6202904
  36. Codec configuration box                  : hvcC+dvvC
  37. Audio #1
  38. ID                                       : 2
  39. Format                                   : E-AC-3
  40. Format/Info                              : Enhanced AC-3
  41. Commercial name                          : Dolby Digital Plus
  42. Codec ID                                 : ec-3
  43. Duration                                 : 1 h 43 min
  44. Source duration                          : 1 h 43 min
  45. Bit rate mode                            : Constant
  46. Bit rate                                 : 960 kb/s
  47. Channel(s)                               : 6 channels
  48. Channel layout                           : L R C LFE Ls Rs
  49. Sampling rate                            : 48.0 kHz
  50. Frame rate                               : 31.250 FPS (1536 SPF)
  51. Compression mode                         : Lossy
  52. Stream size                              : 710 MiB (4%)
  53. Source stream size                       : 710 MiB (4%)
  54. Title                                    : BTM
  55. Language                                 : English
  56. Service kind                             : Complete Main
  57. Default                                  : Yes
  58. Alternate group                          : 1
  59. Encoded date                             : 2023-08-10 01:21:01 UTC
  60. Tagged date                              : 2023-08-10 01:21:01 UTC
  61. Audio #2
  62. ID                                       : 3
  63. Format                                   : E-AC-3
  64. Format/Info                              : Enhanced AC-3
  65. Commercial name                          : Dolby Digital Plus
  66. Codec ID                                 : ec-3
  67. Duration                                 : 1 h 43 min
  68. Source duration                          : 1 h 43 min
  69. Bit rate mode                            : Constant
  70. Bit rate                                 : 960 kb/s
  71. Channel(s)                               : 6 channels
  72. Channel layout                           : L R C LFE Ls Rs
  73. Sampling rate                            : 48.0 kHz
  74. Frame rate                               : 31.250 FPS (1536 SPF)
  75. Compression mode                         : Lossy
  76. Stream size                              : 710 MiB (4%)
  77. Source stream size                       : 710 MiB (4%)
  78. Title                                    : BTM
  79. Language                                 : Spanish
  80. Service kind                             : Complete Main
  81. Default                                  : No
  82. Alternate group                          : 1
  83. Encoded date                             : 2023-08-10 01:21:01 UTC
  84. Tagged date                              : 2023-08-10 01:21:01 UTC
复制代码



Hao8k.cn提示您 点击下方附件名称 即可开始下载

不要见怪.No.Hard.Feelings.2023.2160p.Dolby.Vision.And.HDR10.ENG.And.ESP.LATINO.DDP5.1.DV.x265.MP4-BEN.THE.MEN 19.09GB

No.Hard.Feelings.2023.2160p.Dolby.Vision.And.HDR10.ENG.And.ESP.LATINO.DDP5.1.DV.x265.MP4-BEN.THE.MEN.torrent ( 96.54 KB )

回复

使用道具 举报

全部回复2 显示全部楼层
翼AQLO 发表于 2024-3-31 10:47:22 | 显示全部楼层
这个版本清晰吗?感觉很多高清并不清楚,不知道是不是我得电视有问题
回复

使用道具 举报

lhchenbo 发表于 2024-4-3 17:42:16 | 显示全部楼层
谢谢分享好资源
回复

使用道具 举报

声明:您在社区发表的所有信息仅代表用户个人观点,与本网站立场无关,希望各位烧友理性发言,不发表违法国家法律禁止的话题。

您需要登录后才可以回帖 登录 | 立即注册

本版积分规则

开通会员 每日签到 返回顶部 返回列表