开启左侧

[剧情片] 相敬如宾.Loving.Couples.1964.1080p.BluRay.x264-BiPOLAR 17.26GB

Hao8k资源组 发表于 2023-5-18 09:31:16 | 显示全部楼层 |阅读模式

马上注册 Hao8k.cn ,获得更好的体验,让你轻松玩转Hao8k

您需要 登录 才可以下载或查看,没有帐号?立即注册

x
p2249855158.jpg.jpg


译  名 相敬如宾 / Loving Couples
片  名 Älskande par
年  代 1964
产  地 瑞典
类  别 剧情 / 爱情
语  言 瑞典语
上映日期 1964-12-21(瑞典)
IMDb评星  ★★★★★★✦☆☆☆
IMDb评分  6.6/10 from 714 users
豆瓣评星 ★★★★☆
豆瓣评分 8.1/10 from 149 users
片  长 118 分钟
导  演 梅·扎特林 / Mai Zetterling
演  员 哈里特·安德森 / Harriet Andersson
      古内尔·林德布洛姆 / Gunnel Lindblom
      尤·佩特雷 / Gio Petré
      安尼塔·布耶尔克 / Anita Björk
      古纳尔·布约恩施特兰德 / Gunnar Björnstrand
      伊娃·达尔贝克 / Eva Dahlbeck
      简·马尔姆斯 / Jan Malmsjö
      Börje Mellvig Börje Mellvig
      斯滕·伦纳特 / Sten Lonnert
      Toivo Pawlo Toivo Pawlo
      Rebecca Pawlo Rebecca Pawlo
      扬-埃里克·林德奎斯特 / Jan-Eric Lindquist
      Hanny Schedin Hanny Schedin
      Isa Quensel Isa Quensel
      Hans Strååt Hans Strååt
      米塔·韦兰德 / Meta Velander
      Claes Thelander Claes Thelander
      弗兰克·松德斯特伦 / Frank Sundström
      Hans Sundberg Hans Sundberg
      Birger Åsander Birger Åsander
      Henrik Schildt Henrik Schildt
      Arne Lindblad Arne Lindblad
      Stig de la Berg Stig de la Berg
      乌尔夫·约翰松 / Ulf Johansson
      芭布洛·约尔特·阿夫·奥纳斯 / Barbro Hiort af Ornäs
      Lissi Alandh Lissi Alandh
      Eva Alw Eva Alw
      玛吉特·卡尔奎斯特 / Margit Carlqvist
      Nancy Dalunde Nancy Dalunde
      Bengt Brunskog Bengt Brunskog
      Märta Dorff Märta Dorff
      Axel Fritz Axel Fritz
      Berit Gustafsson Berit Gustafsson
      Heinz Hopf Heinz Hopf
      Bo Hederström Bo Hederström
      奥克·格伦贝里 / Åke Grönberg
      因加·朗格里 / Inga Landgré
编  剧 大卫·休斯 / David Hughes
      梅·扎特林 / Mai Zetterling
      David Hughes David Hughes
制  片  人 Göran Lindgren Göran Lindgren
      Rune Waldekranz Rune Waldekranz
摄  影 斯文·尼科维斯特 / Sven Nykvist

简  介

三个怀有身孕的女人再次于斯德哥尔摩的医院产房相遇,带有贵族气息且势利的 Angela、活泼烂漫的 Agda 以及忧郁苦闷的 Adele,她们性格各异来自不同的成长背景,等待分娩的时刻,年少时的回忆涌流而出,关于爱情的难解、婚家价值的道德禁锢、丈夫的压迫,以及女性被社会赋予的宿命,在婚姻与伴侣关系遇上的种种难关,当下与回忆交融并叙,时而穿梭在豪华宅邸的欢快宴席,时而滞留痛苦难耐的待产室里。汇集博格曼的电影班底,改编自当时极具争议的瑞典女性主义作家 Agnes von Krusenstjerna 小说《The Misses von Pahlen》,呈现一次世界大战之前,瑞典女性试图振臂拥抱自由的悲歌。


获奖情况 

第18届戛纳电影节 (1965)
  主竞赛单元 金棕榈奖(提名) 梅·扎特林

影片参数
  1. Video
  2. ID : 1
  3. Format : AVC
  4. Format/Info : Advanced Video Codec
  5. Format profile : [email protected]
  6. Format settings : CABAC / 4 Ref Frames
  7. Format settings, CABAC : Yes
  8. Format settings, Reference frames : 4 frames
  9. Codec ID : V_MPEG4/ISO/AVC
  10. Duration : 1 h 58 min
  11. Bit rate : 20.3 Mb/s
  12. Width : 1 792 pixels
  13. Height : 1 080 pixels
  14. Display aspect ratio : 5:3
  15. Frame rate mode : Constant
  16. Frame rate : 23.976 (24000/1001) FPS
  17. Color space : YUV
  18. Chroma subsampling : 4:2:0
  19. Bit depth : 8 bits
  20. Scan type : Progressive
  21. Bits/(Pixel*Frame) : 0.438
  22. Stream size : 16.8 GiB (97%)
  23. Writing library : x264 core 164 r3107 a8b68eb
  24. Encoding settings : cabac=1 / ref=4 / deblock=1:-3:-3 / analyse=0x3:0x133 / me=umh / subme=10 / psy=1 / psy_rd=1.00:0.15 / mixed_ref=1 / me_range=24 / chroma_me=1 / trellis=2 / 8x8dct=1 / cqm=0 / deadzone=21,11 / fast_pskip=1 / chroma_qp_offset=-3 / threads=18 / lookahead_threads=3 / sliced_threads=0 / nr=0 / decimate=1 / interlaced=0 / bluray_compat=0 / constrained_intra=0 / bframes=8 / b_pyramid=2 / b_adapt=2 / b_bias=0 / direct=3 / weightb=1 / open_gop=0 / weightp=2 / keyint=250 / keyint_min=23 / scenecut=40 / intra_refresh=0 / rc_lookahead=60 / rc=crf / mbtree=1 / crf=18.0 / qcomp=0.60 / qpmin=0 / qpmax=69 / qpstep=4 / ip_ratio=1.40 / aq=3:0.50
  25. Language : English
  26. Default : Yes
  27. Forced : No
  28. Audio
  29. ID : 2
  30. Format : FLAC
  31. Format/Info : Free Lossless Audio Codec
  32. Codec ID : A_FLAC
  33. Duration : 1 h 58 min
  34. Bit rate mode : Variable
  35. Bit rate : 541 kb/s
  36. Channel(s) : 1 channel
  37. Channel layout : C
  38. Sampling rate : 48.0 kHz
  39. Frame rate : 11.719 FPS (4096 SPF)
  40. Bit depth : 24 bits
  41. Compression mode : Lossless
  42. Stream size : 459 MiB (3%)
  43. Writing library : libFLAC 1.2.1 (UTC 2007-09-17)
  44. Language : Swedish
  45. Default : Yes
  46. Forced : No
  47. Text #1
  48. ID : 3
  49. Format : UTF-8
  50. Codec ID : S_TEXT/UTF8
  51. Codec ID/Info : UTF-8 Plain Text
  52. Duration : 1 h 54 min
  53. Bit rate : 44 b/s
  54. Count of elements : 1011
  55. Stream size : 37.5 KiB (0%)
  56. Title : English
  57. Language : English
  58. Default : Yes
  59. Forced : Yes
  60. Text #2
  61. ID : 4
  62. Format : PGS
  63. Muxing mode : zlib
  64. Codec ID : S_HDMV/PGS
  65. Codec ID/Info : Picture based subtitle format used on BDs/HD-DVDs
  66. Duration : 1 h 54 min
  67. Bit rate : 6 250 b/s
  68. Count of elements : 2022
  69. Stream size : 5.10 MiB (0%)
  70. Title : English
  71. Language : English
  72. Default : No
  73. Forced : No
  74. Menu
  75. 00:00:00.000 : en:00:00:00.000
  76. 00:11:38.907 : en:00:11:38.907
  77. 00:18:41.662 : en:00:18:41.662
  78. 00:29:00.739 : en:00:29:00.739
  79. 00:37:29.372 : en:00:37:29.372
  80. 00:48:26.904 : en:00:48:26.904
  81. 00:56:43.233 : en:00:56:43.233
  82. 01:01:19.718 : en:01:01:19.718
  83. 01:04:18.855 : en:01:04:18.855
  84. 01:10:36.732 : en:01:10:36.732
  85. 01:16:34.757 : en:01:16:34.757
  86. 01:22:16.765 : en:01:22:16.765
  87. 01:28:31.264 : en:01:28:31.264
  88. 01:34:13.273 : en:01:34:13.273
  89. 01:39:31.799 : en:01:39:31.799
  90. 01:48:06.689 : en:01:48:06.689
  91. 01:53:28.885 : en:01:53:28.885
复制代码

95210278895729795310_thumb.jpg.jpg



Hao8k.cn提示您 点击下方附件名称 即可开始下载

相敬如宾.Loving.Couples.1964.1080p.BluRay.x264-BiPOLAR 17.26GB

Loving.Couples.1964.1080p.BluRay.x264-BiPOLAR.torrent ( 22.31 KB )

回复

使用道具 举报

全部回复1 显示全部楼层
lhchenbo 发表于 2024-5-7 12:30:30 | 显示全部楼层
感谢楼主的分享,发贴辛苦
回复

使用道具 举报

声明:您在社区发表的所有信息仅代表用户个人观点,与本网站立场无关,希望各位烧友理性发言,不发表违法国家法律禁止的话题。

您需要登录后才可以回帖 登录 | 立即注册

本版积分规则

开通会员 每日签到 返回顶部 返回列表