开启左侧

[剧情片] 女囚大逃亡.Escape.from.Hell.1980.ITALIAN.1080p.BluRay.x264.AAC2.0-PTP 7.77GB

Hao8k资源组 发表于 2023-4-17 08:04:29 | 显示全部楼层 |阅读模式

马上注册 Hao8k.cn ,获得更好的体验,让你轻松玩转Hao8k

您需要 登录 才可以下载或查看,没有帐号?立即注册

x
p2289992790.jpg


译  名 女囚大逃亡 / L''inferno delle donee / Escape from Hell
片  名 Femmine infernali
年  代 1980
产  地 西班牙 / 意大利
类  别 剧情 / 惊悚 / 犯罪
语  言 意大利语
上映日期 1980-03-27
IMDb评星  ★★★★★☆☆☆☆☆
IMDb评分  4.8/10 from 544 users
片  长 93 分钟 / UK: 88 分钟(cut)
导  演 爱德华多·穆纳拉加 / Edoardo Mulargia
演  员 安东尼·斯特芬 / Anthony Steffen
      卢西亚诺·皮格齐 / Luciano Pigozzi
      扎伊拉·佐克杜 / Zaira Zoccheddu
编  剧 Roberto Estévez Roberto Estévez
      爱德华多·穆纳拉加 / Edoardo Mulargia
音  乐 Marcello Giombini Marcello Giombini

简  介

女子监狱营地位于深处的热带雨林。虐待狂警卫和从地狱监狱长让生活的犯人几乎无法忍受,而规则的任何违规行为的处理迅速和猛烈。该营地医生吓坏了他所认为的发生,和饮料巨资恐怖推开。最后犯人都已经受够了,他们争取医生的帮助下,试图逃跑。

影片参数
  1. Video
  2. ID : 1
  3. Format : AVC
  4. Format/Info : Advanced Video Codec
  5. Format profile : [email protected]
  6. Format settings : CABAC / 4 Ref Frames
  7. Format settings, CABAC : Yes
  8. Format settings, Reference frames : 4 frames
  9. Codec ID : V_MPEG4/ISO/AVC
  10. Duration : 1 h 31 min
  11. Bit rate : 12.0 Mb/s
  12. Width : 1 920 pixels
  13. Height : 1 080 pixels
  14. Display aspect ratio : 16:9
  15. Frame rate mode : Constant
  16. Frame rate : 24.000 FPS
  17. Color space : YUV
  18. Chroma subsampling : 4:2:0
  19. Bit depth : 8 bits
  20. Scan type : Progressive
  21. Bits/(Pixel*Frame) : 0.241
  22. Stream size : 7.68 GiB (99%)
  23. Writing library : x264 core 164 r3100 ed0f7a6
  24. Encoding settings : cabac=1 / ref=4 / deblock=1:-3:-3 / analyse=0x3:0x133 / me=umh / subme=10 / psy=1 / psy_rd=1.00:0.00 / mixed_ref=1 / me_range=32 / chroma_me=1 / trellis=2 / 8x8dct=1 / cqm=0 / deadzone=21,11 / fast_pskip=0 / chroma_qp_offset=-2 / threads=15 / lookahead_threads=3 / sliced_threads=0 / nr=0 / decimate=0 / interlaced=0 / bluray_compat=0 / constrained_intra=0 / bframes=16 / b_pyramid=2 / b_adapt=2 / b_bias=0 / direct=3 / weightb=1 / open_gop=0 / weightp=2 / keyint=240 / keyint_min=24 / scenecut=40 / intra_refresh=0 / rc_lookahead=60 / rc=2pass / mbtree=0 / bitrate=12000 / ratetol=1.0 / qcomp=0.60 / qpmin=0 / qpmax=69 / qpstep=4 / cplxblur=20.0 / qblur=0.5 / vbv_maxrate=62500 / vbv_bufsize=78125 / nal_hrd=none / filler=0 / ip_ratio=1.40 / pb_ratio=1.30 / aq=2:1.00
  25. Default : Yes
  26. Forced : No
  27. Color range : Limited
  28. Color primaries : BT.709
  29. Transfer characteristics : BT.709
  30. Matrix coefficients : BT.709
  31. Audio
  32. ID : 2
  33. Format : AAC LC
  34. Format/Info : Advanced Audio Codec Low Complexity
  35. Codec ID : A_AAC-2
  36. Duration : 1 h 31 min
  37. Bit rate : 127 kb/s
  38. Channel(s) : 2 channels
  39. Channel layout : L R
  40. Sampling rate : 48.0 kHz
  41. Frame rate : 46.875 FPS (1024 SPF)
  42. Compression mode : Lossy
  43. Stream size : 83.1 MiB (1%)
  44. Language : Italian
  45. Default : Yes
  46. Forced : No
  47. Text #1
  48. ID : 3
  49. Format : ASS
  50. Codec ID : S_TEXT/ASS
  51. Codec ID/Info : Advanced Sub Station Alpha
  52. Duration : 1 h 30 min
  53. Bit rate : 57 b/s
  54. Frame rate : 0.138 FPS
  55. Count of elements : 747
  56. Compression mode : Lossless
  57. Stream size : 38.4 KiB (0%)
  58. Language : English
  59. Default : No
  60. Forced : No
  61. Text #2
  62. ID : 4
  63. Format : PGS
  64. Muxing mode : zlib
  65. Codec ID : S_HDMV/PGS
  66. Codec ID/Info : Picture based subtitle format used on BDs/HD-DVDs
  67. Duration : 1 h 31 min
  68. Bit rate : 11.6 kb/s
  69. Frame rate : 0.273 FPS
  70. Count of elements : 1499
  71. Stream size : 7.59 MiB (0%)
  72. Language : French
  73. Default : No
  74. Forced : No
  75. Menu
  76. 00:00:00.000 : Chapter 1
  77. 00:05:00.042 : Chapter 2
  78. 00:10:00.000 : Chapter 3
  79. 00:15:00.042 : Chapter 4
  80. 00:20:00.083 : Chapter 5
  81. 00:25:00.000 : Chapter 6
  82. 00:30:00.042 : Chapter 7
  83. 00:35:00.000 : Chapter 8
  84. 00:40:00.083 : Chapter 9
  85. 00:45:00.042 : Chapter 10
  86. 00:50:00.083 : Chapter 11
  87. 00:55:00.000 : Chapter 12
  88. 01:00:00.000 : Chapter 13
  89. 01:05:00.042 : Chapter 14
  90. 01:10:00.042 : Chapter 15
  91. 01:15:00.000 : Chapter 16
  92. 01:20:00.042 : Chapter 17
  93. 01:25:00.000 : Chapter 18
  94. 01:30:48.917 : Chapter 19
复制代码

23955010819442152399_thumb.png

17213970462254808358_thumb.png



Hao8k.cn提示您 点击下方附件名称 即可开始下载

女囚大逃亡.Escape.from.Hell.1980.ITALIAN.1080p.BluRay.x264.AAC2.0-PTP 7.77GB

Escape.from.Hell.1980.ITALIAN.1080p.BluRay.x264.AAC2.0-PTP.torrent ( 20.06 KB )

回复

使用道具 举报

全部回复22 显示全部楼层
VDWJ 发表于 2023-9-28 08:39:12 | 显示全部楼层
感谢分享,棒棒哒
回复

使用道具 举报

cZ、 发表于 2023-11-19 19:32:09 | 显示全部楼层
好不好看
回复

使用道具 举报

g36393gg 发表于 2023-11-20 13:16:08 | 显示全部楼层

感谢分享,棒棒哒
回复

使用道具 举报

lcb0920 发表于 2023-11-23 20:20:12 | 显示全部楼层
感谢分享,棒棒哒
回复

使用道具 举报

sjdxfsj 发表于 2023-12-2 22:36:42 | 显示全部楼层


感谢分享,感谢分享
回复

使用道具 举报

圆月弯刀 发表于 2023-12-3 09:59:35 | 显示全部楼层
感谢分享
回复

使用道具 举报

soudie 发表于 2023-12-5 07:49:20 | 显示全部楼层
感谢分享
回复

使用道具 举报

wwmmddzz 发表于 2023-12-8 06:36:37 | 显示全部楼层
感谢分享。谢谢了
回复

使用道具 举报

zz2920 发表于 2023-12-13 14:26:48 | 显示全部楼层
感谢分享,棒棒哒
回复

使用道具 举报

声明:您在社区发表的所有信息仅代表用户个人观点,与本网站立场无关,希望各位烧友理性发言,不发表违法国家法律禁止的话题。

您需要登录后才可以回帖 登录 | 立即注册

本版积分规则

开通会员 每日签到 返回顶部 返回列表