开启左侧

人之怒.Wrath.of.Man.2021.PROPER.2160p.UHD.BluRay.x265.10bit.HDR.TrueHD.7.1.Atmos-B0MBARDiERS 24.47GB

Hao8k资源组 发表于 2023-1-19 23:42:08 | 显示全部楼层 |阅读模式
画质标准:
10bit.HDR 2160p 
音质编码:
Dolby-Atmos Dolby-TrueHD 
电影声道:
7.1声道


电影封面

马上注册 Hao8k.cn ,获得更好的体验,让你轻松玩转Hao8k

您需要 登录 才可以下载或查看,没有帐号?立即注册

x
091110e3d0e80d32h6puhd.jpg


标  题 人之怒
译  名 玩命钞劫(台) / 运钞车 / Cash Truck
    在一次全副武装的运钞车劫案中,梅斯先生(杰森·斯坦森 饰)的儿子作为案发目击者被劫匪杀害。怒火中烧的梅斯为报丧子之仇,化身H卧底成为运钞车安保,试图找出杀害他儿子的劫匪以及与劫匪暗中勾结的安保公司内鬼。

影片参数
  1. Video
  2. ID                                       : 1
  3. Format                                   : HEVC
  4. Format/Info                              : High Efficiency Video Coding
  5. Format profile                           : Main [email protected]@High
  6. HDR format                               : SMPTE ST 2086, HDR10 compatible
  7. Codec ID                                 : V_MPEGH/ISO/HEVC
  8. Duration                                 : 1 h 58 min
  9. Bit rate                                 : 25.0 Mb/s
  10. Width                                    : 3 840 pixels
  11. Height                                   : 1 604 pixels
  12. Display aspect ratio                     : 2.40:1
  13. Frame rate mode                          : Constant
  14. Frame rate                               : 23.976 (24000/1001) FPS
  15. Color space                              : YUV
  16. Chroma subsampling                       : 4:2:0 (Type 2)
  17. Bit depth                                : 10 bits
  18. Bits/(Pixel*Frame)                       : 0.169
  19. Stream size                              : 20.8 GiB (86%)
  20. Writing library                          : x265 3.5+82-82225f9a5:[Windows][GCC 12.2.0][64 bit] 10bit
  21. Encoding settings                        : cpuid=1176575 / frame-threads=5 / numa-pools=36 / wpp / no-pmode / no-pme / no-psnr / no-ssim / log-level=2 / input-csp=1 / input-res=3840x1604 / interlace=0 / total-frames=171107 / level-idc=51 / high-tier=1 / uhd-bd=0 / ref=4 / no-allow-non-conformance / repeat-headers / annexb / aud / no-eob / no-eos / hrd / info / hash=0 / temporal-layers=0 / open-gop / min-keyint=23 / keyint=250 / gop-lookahead=0 / bframes=4 / b-adapt=2 / b-pyramid / bframe-bias=0 / rc-lookahead=25 / lookahead-slices=4 / scenecut=40 / no-hist-scenecut / radl=0 / no-splice / no-intra-refresh / ctu=64 / min-cu-size=8 / rect / no-amp / max-tu-size=32 / tu-inter-depth=1 / tu-intra-depth=1 / limit-tu=0 / rdoq-level=2 / dynamic-rd=0.00 / no-ssim-rd / signhide / no-tskip / nr-intra=0 / nr-inter=0 / no-constrained-intra / strong-intra-smoothing / max-merge=3 / limit-refs=3 / limit-modes / me=3 / subme=3 / merange=57 / temporal-mvp / no-frame-dup / no-hme / weightp / no-weightb / no-analyze-src-pics / deblock=-3:-3 / no-sao / no-sao-non-deblock / rd=4 / selective-sao=0 / no-early-skip / rskip / no-fast-intra / no-tskip-fast / no-cu-lossless / no-b-intra / no-splitrd-skip / rdpenalty=0 / psy-rd=2.00 / psy-rdoq=1.00 / no-rd-refine / no-lossless / cbqpoffs=0 / crqpoffs=0 / rc=crf / crf=13.0 / qcomp=0.60 / qpstep=4 / stats-write=0 / stats-read=0 / vbv-maxrate=160000 / vbv-bufsize=160000 / vbv-init=0.9 / min-vbv-fullness=50.0 / max-vbv-fullness=80.0 / crf-max=0.0 / crf-min=0.0 / ipratio=1.40 / pbratio=1.30 / aq-mode=2 / aq-strength=1.00 / cutree / zone-count=0 / no-strict-cbr / qg-size=32 / no-rc-grain / qpmax=69 / qpmin=0 / no-const-vbv / sar=1 / overscan=0 / videoformat=5 / range=0 / colorprim=9 / transfer=16 / colormatrix=9 / chromaloc=1 / chromaloc-top=2 / chromaloc-bottom=2 / display-window=0 / master-display=G(8500,39850)B(6550,2300)R(35400,14600)WP(15635,16450)L(10000000,0) / cll=718,195 / min-luma=0 / max-luma=1023 / log2-max-poc-lsb=8 / vui-timing-info / vui-hrd-info / slices=1 / no-opt-qp-pps / no-opt-ref-list-length-pps / no-multi-pass-opt-rps / scenecut-bias=0.05 / no-opt-cu-delta-qp / no-aq-motion / hdr10 / hdr10-opt / no-dhdr10-opt / no-idr-recovery-sei / analysis-reuse-level=0 / analysis-save-reuse-level=0 / analysis-load-reuse-level=0 / scale-factor=0 / refine-intra=0 / refine-inter=0 / refine-mv=1 / refine-ctu-distortion=0 / no-limit-sao / ctu-info=0 / no-lowpass-dct / refine-analysis-type=0 / copy-pic=1 / max-ausize-factor=1.0 / no-dynamic-refine / no-single-sei / no-hevc-aq / no-svt / no-field / qp-adaptation-range=1.00 / scenecut-aware-qp=0conformance-window-offsets / right=0 / bottom=0 / decoder-max-rate=0 / no-vbv-live-multi-pass / no-mcstf / no-sbrc
  22. Default                                  : Yes
  23. Forced                                   : No
  24. Color range                              : Limited
  25. Color primaries                          : BT.2020
  26. Transfer characteristics                 : PQ
  27. Matrix coefficients                      : BT.2020 non-constant
  28. Mastering display color primaries        : BT.2020
  29. Mastering display luminance              : min: 0.0000 cd/m2, max: 1000 cd/m2
  30. Maximum Content Light Level              : 718 cd/m2
  31. Maximum Frame-Average Light Level        : 195 cd/m2
  32. Audio #1
  33. ID                                       : 2
  34. Format                                   : MLP FBA 16-ch
  35. Format/Info                              : Meridian Lossless Packing FBA with 16-channel presentation
  36. Commercial name                          : Dolby TrueHD with Dolby Atmos
  37. Codec ID                                 : A_TRUEHD
  38. Duration                                 : 1 h 58 min
  39. Bit rate mode                            : Variable
  40. Bit rate                                 : 3 735 kb/s
  41. Maximum bit rate                         : 5 952 kb/s
  42. Channel(s)                               : 8 channels
  43. Channel layout                           : L R C LFE Ls Rs Lb Rb
  44. Sampling rate                            : 48.0 kHz
  45. Frame rate                               : 1 200.000 FPS (40 SPF)
  46. Compression mode                         : Lossless
  47. Stream size                              : 3.10 GiB (13%)
  48. Language                                 : English
  49. Default                                  : Yes
  50. Forced                                   : No
  51. Number of dynamic objects                : 11
  52. Bed channel count                        : 1 channel
  53. Bed channel configuration                : LFE
  54. Audio #2
  55. ID                                       : 3
  56. Format                                   : AC-3
  57. Format/Info                              : Audio Coding 3
  58. Commercial name                          : Dolby Digital
  59. Codec ID                                 : A_AC3
  60. Duration                                 : 1 h 58 min
  61. Bit rate mode                            : Constant
  62. Bit rate                                 : 384 kb/s
  63. Channel(s)                               : 6 channels
  64. Channel layout                           : L R C LFE Ls Rs
  65. Sampling rate                            : 48.0 kHz
  66. Frame rate                               : 31.250 FPS (1536 SPF)
  67. Compression mode                         : Lossy
  68. Stream size                              : 327 MiB (1%)
  69. Language                                 : English
  70. Service kind                             : Complete Main
  71. Default                                  : Yes
  72. Forced                                   : No
  73. Text
  74. ID                                       : 4
  75. Format                                   : PGS
  76. Muxing mode                              : zlib
  77. Codec ID                                 : S_HDMV/PGS
  78. Codec ID/Info                            : Picture based subtitle format used on BDs/HD-DVDs
  79. Duration                                 : 1 h 50 min
  80. Bit rate                                 : 45.2 kb/s
  81. Frame rate                               : 0.597 FPS
  82. Count of elements                        : 3970
  83. Stream size                              : 35.8 MiB (0%)
  84. Title                                    : English SDH
  85. Language                                 : English
  86. Default                                  : No
  87. Forced                                   : No
  88. Menu
  89. 00:00:00.000                             : en:Chapter 01
  90. 00:13:08.371                             : en:Chapter 02
  91. 00:22:05.491                             : en:Chapter 03
  92. 00:31:02.027                             : en:Chapter 04
  93. 00:41:37.078                             : en:Chapter 05
  94. 00:49:46.525                             : en:Chapter 06
  95. 01:00:50.313                             : en:Chapter 07
  96. 01:09:32.752                             : en:Chapter 08
  97. 01:17:35.150                             : en:Chapter 09
  98. 01:28:15.123                             : en:Chapter 10
  99. 01:38:03.127                             : en:Chapter 11
  100. 01:47:13.969                             : en:Chapter 12
  101. 01:58:56.338                             : en:Chapter 13
复制代码

091116vunfkzp4rpnkmrcj.jpg

091120bzgdrg7aqr675b5k.jpg

091124w5z35w2ywsl33dt1.jpg



Hao8k.cn提示您 点击下方附件名称 即可开始下载

人之怒.Wrath.of.Man.2021.PROPER.2160p.UHD.BluRay.x265.10bit.HDR.TrueHD.7.1.Atmos-B0MBARDiERS 24.47GB

Wrath.of.Man.2021.PROPER.2160p.UHD.BluRay.x265.10bit.HDR.TrueHD.7.1.Atmos-B0MBARDiERS.torrent ( 31.43 KB )

回复

使用道具 举报

全部回复5 显示全部楼层
yy_75 发表于 2023-1-21 15:33:04 | 显示全部楼层
777777777777777777777
回复

使用道具 举报

慕赫ken 发表于 2023-1-22 13:45:43 | 显示全部楼层
谢谢分享
回复

使用道具 举报

慕赫ken 发表于 7 天前 | 显示全部楼层
谢谢分享
回复

使用道具 举报

慕赫ken 发表于 5 天前 | 显示全部楼层
谢谢分享
回复

使用道具 举报

吉祥之鑫 发表于 前天 08:53 | 显示全部楼层
不错,谢谢分享!:lol
回复

使用道具 举报

声明:您在社区发表的所有信息仅代表用户个人观点,与本网站立场无关,希望各位烧友理性发言,不发表违法国家法律禁止的话题。

您需要登录后才可以回帖 登录 | 立即注册

本版积分规则

开通会员 每日签到 返回顶部 返回列表