开启左侧

历劫佳人.Touch.of.Evil.1958.RECONSTRUCTED.VERSION.2160p.UHD.BluRay.x265.10bit.HDR.DDP2.0-RARBG 6.37GB

Hao8k资源组 发表于 2023-1-19 23:41:10 | 显示全部楼层 |阅读模式
画质标准:
10bit.HDR 2160p 
音质编码:
其它DDP 
电影声道:
5.1声道


电影封面

马上注册 Hao8k.cn ,获得更好的体验,让你轻松玩转Hao8k

您需要 登录 才可以下载或查看,没有帐号?立即注册

x
091516hmmmdzfpjmmpphbm.jpg


标  题 历劫佳人
译  名 狂野生死恋 / 历劫名花 / 邪恶的接触 / 邪恶之触 / 恶之触
    缉毒官员Newlyweds Miguel "Mike" Vargas(查尔登·海斯顿 Charlton Heston 饰)和他的妻子Susie(珍妮特·利 Janet Leigh 饰)来到了美国和墨西哥的边界。马路上发生了一起汽车爆炸事件,Vargas认为这起案件跟毒贩子有关,遂和当地的警察们一起展开了调查。Hank Quinlan(奥逊·威尔斯 Orson Welles 饰)是警察队长,在当地名声甚响。当地警方把嫌疑集中在一个叫Sanchez的人身上,Vargas却在Sanchez的家中发现了证明他不是犯人的证据。然而Quinlan执意认为Sanchez就是犯人。Vargas研究了以前Quinlan办过的案件,对这个赫赫有名的警察队长产生了不少疑问。而Vargas的妻子Susie在旅馆里却被一帮人所绑架并陷害,Vargas怀疑这一切的背后都是Quinlan在操纵。Vargas在和Quinlan的对抗中会有怎样的结局?                                                                      本片由执导了《公民凯恩》的奥逊·威尔斯自编自导自演,共有三个版本:1958年发行的版本,1976年的加长版,1998年发现的可能更符合威尔斯想法的版本。

影片参数
  1. Video
  2. ID                                       : 1
  3. Format                                   : HEVC
  4. Format/Info                              : High Efficiency Video Coding
  5. Format profile                           : Main [email protected]@Main
  6. HDR format                               : SMPTE ST 2086, HDR10 compatible
  7. Codec ID                                 : V_MPEGH/ISO/HEVC
  8. Duration                                 : 1 h 50 min
  9. Bit rate                                 : 8 019 kb/s
  10. Width                                    : 3 840 pixels
  11. Height                                   : 2 076 pixels
  12. Display aspect ratio                     : 1.85:1
  13. Frame rate mode                          : Constant
  14. Frame rate                               : 24.000 FPS
  15. Color space                              : YUV
  16. Chroma subsampling                       : 4:2:0
  17. Bit depth                                : 10 bits
  18. Bits/(Pixel*Frame)                       : 0.042
  19. Stream size                              : 6.19 GiB (97%)
  20. Writing library                          : x265 3.5+rarbg-HDR-38-20255e6:[Linux][clang 16.0.0][64 bit] 10bit
  21. Encoding settings                        : cpuid=1111039 / frame-threads=6 / wpp / no-pmode / no-pme / no-psnr / no-ssim / log-level=2 / input-csp=1 / input-res=3840x2076 / interlace=0 / total-frames=0 / level-idc=51 / high-tier=1 / uhd-bd=0 / ref=4 / no-allow-non-conformance / repeat-headers / annexb / aud / no-eob / no-eos / no-hrd / info / hash=0 / no-temporal-layers / no-open-gop / min-keyint=1 / keyint=24 / gop-lookahead=0 / bframes=4 / b-adapt=2 / b-pyramid / bframe-bias=0 / rc-lookahead=25 / lookahead-slices=4 / scenecut=40 / no-hist-scenecut / radl=0 / no-splice / no-intra-refresh / ctu=64 / min-cu-size=8 / rect / no-amp / max-tu-size=32 / tu-inter-depth=1 / tu-intra-depth=1 / limit-tu=0 / rdoq-level=2 / dynamic-rd=0.00 / no-ssim-rd / signhide / no-tskip / nr-intra=0 / nr-inter=0 / no-constrained-intra / strong-intra-smoothing / max-merge=3 / limit-refs=3 / no-limit-modes / me=3 / subme=3 / merange=57 / temporal-mvp / no-frame-dup / no-hme / weightp / no-weightb / no-analyze-src-pics / deblock=0:0 / no-sao / no-sao-non-deblock / rd=4 / selective-sao=0 / no-early-skip / rskip / no-fast-intra / no-tskip-fast / no-cu-lossless / no-b-intra / no-splitrd-skip / rdpenalty=0 / psy-rd=2.00 / psy-rdoq=1.00 / no-rd-refine / no-lossless / cbqpoffs=0 / crqpoffs=0 / rc=abr / bitrate=8000 / qcomp=0.60 / qpstep=4 / stats-write=0 / stats-read=2 / cplxblur=20.0 / qblur=0.5 / ipratio=1.40 / pbratio=1.30 / aq-mode=1 / aq-strength=1.00 / cutree / zone-count=0 / no-strict-cbr / qg-size=32 / no-rc-grain / qpmax=69 / qpmin=0 / no-const-vbv / sar=1 / overscan=0 / videoformat=5 / range=0 / colorprim=9 / transfer=16 / colormatrix=9 / chromaloc=0 / display-window=0 / master-display=G(13250,34500)B(7500,3000)R(34000,16000)WP(15635,16450)L(10000000,1) / cll=1007,217 / min-luma=0 / max-luma=1023 / log2-max-poc-lsb=8 / vui-timing-info / vui-hrd-info / slices=1 / no-opt-qp-pps / no-opt-ref-list-length-pps / no-multi-pass-opt-rps / scenecut-bias=0.05 / hist-threshold=0.03 / no-opt-cu-delta-qp / no-aq-motion / hdr10 / hdr10-opt / no-dhdr10-opt / no-idr-recovery-sei / analysis-reuse-level=0 / analysis-save-reuse-level=0 / analysis-load-reuse-level=0 / scale-factor=0 / refine-intra=0 / refine-inter=0 / refine-mv=1 / refine-ctu-distortion=0 / no-limit-sao / ctu-info=0 / no-lowpass-dct / refine-analysis-type=0 / copy-pic=1 / max-ausize-factor=1.0 / no-dynamic-refine / no-single-sei / no-hevc-aq / no-svt / no-field / qp-adaptation-range=1.00 / scenecut-aware-qp=0conformance-window-offsets / right=0 / bottom=0 / decoder-max-rate=0 / no-vbv-live-multi-pass
  22. Default                                  : Yes
  23. Forced                                   : No
  24. Color range                              : Limited
  25. Color primaries                          : BT.2020
  26. Transfer characteristics                 : PQ
  27. Matrix coefficients                      : BT.2020 non-constant
  28. Mastering display color primaries        : Display P3
  29. Mastering display luminance              : min: 0.0001 cd/m2, max: 1000 cd/m2
  30. Maximum Content Light Level              : 1007 cd/m2
  31. Maximum Frame-Average Light Level        : 217 cd/m2
  32. Audio
  33. ID                                       : 2
  34. Format                                   : E-AC-3
  35. Format/Info                              : Enhanced AC-3
  36. Commercial name                          : Dolby Digital Plus
  37. Codec ID                                 : A_EAC3
  38. Duration                                 : 1 h 50 min
  39. Bit rate mode                            : Constant
  40. Bit rate                                 : 224 kb/s
  41. Channel(s)                               : 2 channels
  42. Channel layout                           : L R
  43. Sampling rate                            : 48.0 kHz
  44. Frame rate                               : 31.250 FPS (1536 SPF)
  45. Compression mode                         : Lossy
  46. Stream size                              : 177 MiB (3%)
  47. Title                                    : English DDP 2.0
  48. Language                                 : English
  49. Service kind                             : Complete Main
  50. Default                                  : Yes
  51. Forced                                   : No
  52. Text #1
  53. ID                                       : 3
  54. Format                                   : UTF-8
  55. Codec ID                                 : S_TEXT/UTF8
  56. Codec ID/Info                            : UTF-8 Plain Text
  57. Duration                                 : 1 h 47 min
  58. Bit rate                                 : 77 b/s
  59. Frame rate                               : 0.259 FPS
  60. Count of elements                        : 1675
  61. Stream size                              : 60.9 KiB (0%)
  62. Title                                    : English SRT
  63. Language                                 : English
  64. Default                                  : Yes
  65. Forced                                   : No
  66. Text #2
  67. ID                                       : 4
  68. Format                                   : UTF-8
  69. Codec ID                                 : S_TEXT/UTF8
  70. Codec ID/Info                            : UTF-8 Plain Text
  71. Duration                                 : 1 h 50 min
  72. Bit rate                                 : 83 b/s
  73. Frame rate                               : 0.278 FPS
  74. Count of elements                        : 1841
  75. Stream size                              : 67.5 KiB (0%)
  76. Title                                    : English SDH SRT
  77. Language                                 : English
  78. Default                                  : No
  79. Forced                                   : No
  80. Menu
  81. 00:00:00.000                             : en:Chapter 01
  82. 00:08:05.875                             : en:Chapter 02
  83. 00:18:56.333                             : en:Chapter 03
  84. 00:35:55.708                             : en:Chapter 04
  85. 00:53:12.625                             : en:Chapter 05
  86. 01:11:06.208                             : en:Chapter 06
  87. 01:18:54.500                             : en:Chapter 07
  88. 01:26:10.500                             : en:Chapter 08
  89. 01:34:11.833                             : en:Chapter 09
  90. 01:41:10.583                             : en:Chapter 10
复制代码

091522mfpohuhbzbrlapur.jpg

091526t5i5ap83851i8x46.jpg

091530kg273m13uwmg73zu.jpg



Hao8k.cn提示您 点击下方附件名称 即可开始下载

历劫佳人.Touch.of.Evil.1958.RECONSTRUCTED.VERSION.2160p.UHD.BluRay.x265.10bit.HDR.DDP2.0-RARBG 6.37GB

Touch.of.Evil.1958.RECONSTRUCTED.VERSION.2160p.UHD.BluRay.x265.10bit.HDR.DDP2.0-RARBG.torrent ( 8.64 KB )

回复

使用道具 举报

全部回复1 显示全部楼层
慕赫ken 发表于 6 天前 | 显示全部楼层
谢谢分享
回复

使用道具 举报

声明:您在社区发表的所有信息仅代表用户个人观点,与本网站立场无关,希望各位烧友理性发言,不发表违法国家法律禁止的话题。

您需要登录后才可以回帖 登录 | 立即注册

本版积分规则

开通会员 每日签到 返回顶部 返回列表