开启左侧

碟中谍3.Mission.Impossible.III.2006.PROPER.2160p.BluRay.REMUX.HEVC.DTS-HD.MA.TrueHD.5.1-FGT 57.67GB

Hao8k资源组 发表于 2023-1-19 23:39:47 | 显示全部楼层 |阅读模式
画质标准:
REMUX.HEVC 2160p 
音质编码:
Dolby-TrueHD DTS-HD Master Audio 
电影声道:
5.1声道


电影封面

马上注册 Hao8k.cn ,获得更好的体验,让你轻松玩转Hao8k

您需要 登录 才可以下载或查看,没有帐号?立即注册

x
055442tlrre5cxzlxrirom.jpg


标  题 碟中谍3
译  名 职业特工队3(港) / 不可能的任务3(台) / M: I 3
       黛安娜·加埃塔 Diane Gaeta Marshall-Green
       Allison Giannini Allison Giannini
       小泽吉郎 Yoshio Iizuka
       艾里克斯·库兹曼 Alex Kurtzman
       丹·明德尔 Dan Mindel
       布兰顿·莫拉勒 Brandon Molale
       罗伯托·奥奇 Roberto Orci
       Douglas Price Douglas Price
       Kwame Rakes Kwame Rakes
       西蒙·瑞 Simon Rhee
        Evan Shields
        Ben Solenberger
       宋静秀 Lucille Soong
       吉米·斯达 Jimmy Star
       约翰托宾 John H. Tobin
       Jasmine Brooke White Jasmine Brooke White
       Ty Williams Ty Williams
       吴文伦 Wenlun Wu
       David Waters David Waters
简  介

伊森(汤姆·克鲁斯 Tom Cruise 饰)曾是任职于特殊部门的秘密特工,自从一位名叫茱莉亚(米歇尔·莫娜汉 Michelle Monaghan 饰)的美丽女子出现在他的生命里后,伊森决定金盆洗手,卸甲归田。遗憾的是,好景不长,幸福的生活还没过多久,伊森便接到了徒弟林德赛(凯丽·拉塞尔 Keri Russell 饰)被死对头戴维恩(菲利普·塞默·霍夫曼 Philip Seymour Hoffman 饰)掳走的消息。戴维恩冷酷又凶残,林德赛落入他的手中可谓是凶多吉少。                                                                      为了解救林德赛,伊森重操旧业,他组织了一支精干的特工小组,向着目标人物发起了进攻。让伊森没有想到的是,戴维恩的真正目标并不是林德赛,而是茱莉亚,当爱妻落入敌手之时,伊森会做出怎样的反击?

影片参数
  1. Video
  2. ID                                       : 1
  3. ID in the original source medium         : 4113 (0x1011)
  4. Format                                   : HEVC
  5. Format/Info                              : High Efficiency Video Coding
  6. Format profile                           : Main [email protected]@High
  7. HDR format                               : Dolby Vision, Version 1.0, dvhe.07.06, BL+EL+RPU, Blu-ray compatible / SMPTE ST 2086, HDR10 compatible
  8. Codec ID                                 : V_MPEGH/ISO/HEVC
  9. Duration                                 : 2 h 5 min
  10. Bit rate                                 : 52.0 Mb/s
  11. Width                                    : 3 840 pixels
  12. Height                                   : 2 160 pixels
  13. Display aspect ratio                     : 16:9
  14. Frame rate mode                          : Constant
  15. Frame rate                               : 23.976 (24000/1001) FPS
  16. Color space                              : YUV
  17. Chroma subsampling                       : 4:2:0 (Type 2)
  18. Bit depth                                : 10 bits
  19. Bits/(Pixel*Frame)                       : 0.262
  20. Stream size                              : 45.6 GiB (79%)
  21. Language                                 : English
  22. Default                                  : No
  23. Forced                                   : No
  24. Color range                              : Limited
  25. Color primaries                          : BT.2020
  26. Transfer characteristics                 : PQ
  27. Matrix coefficients                      : BT.2020 non-constant
  28. Mastering display color primaries        : Display P3
  29. Mastering display luminance              : min: 0.0001 cd/m2, max: 1000 cd/m2
  30. Original source medium                   : Blu-ray
  31. Audio #1
  32. ID                                       : 2
  33. ID in the original source medium         : 4352 (0x1100)
  34. Format                                   : MLP FBA
  35. Format/Info                              : Meridian Lossless Packing FBA
  36. Commercial name                          : Dolby TrueHD
  37. Codec ID                                 : A_TRUEHD
  38. Duration                                 : 2 h 5 min
  39. Bit rate mode                            : Variable
  40. Bit rate                                 : 3 537 kb/s
  41. Maximum bit rate                         : 5 184 kb/s
  42. Channel(s)                               : 6 channels
  43. Channel layout                           : L R C LFE Ls Rs
  44. Sampling rate                            : 48.0 kHz
  45. Frame rate                               : 1 200.000 FPS (40 SPF)
  46. Bit depth                                : 24 bits
  47. Compression mode                         : Lossless
  48. Stream size                              : 3.10 GiB (5%)
  49. Title                                    : TrueHD 5.1
  50. Language                                 : English
  51. Default                                  : Yes
  52. Forced                                   : No
  53. Original source medium                   : Blu-ray
  54. Audio #2
  55. ID                                       : 3
  56. Format                                   : DTS XLL
  57. Format/Info                              : Digital Theater Systems
  58. Commercial name                          : DTS-HD Master Audio
  59. Codec ID                                 : A_DTS
  60. Duration                                 : 2 h 5 min
  61. Bit rate mode                            : Variable
  62. Bit rate                                 : 3 981 kb/s
  63. Channel(s)                               : 6 channels
  64. Channel layout                           : C L R Ls Rs LFE
  65. Sampling rate                            : 48.0 kHz
  66. Frame rate                               : 93.750 FPS (512 SPF)
  67. Bit depth                                : 24 bits
  68. Compression mode                         : Lossless
  69. Stream size                              : 3.49 GiB (6%)
  70. Title                                    : DTS-HD MA 5.1
  71. Language                                 : English
  72. Default                                  : No
  73. Forced                                   : No
  74. Audio #3
  75. ID                                       : 4
  76. ID in the original source medium         : 4352 (0x1100)
  77. Format                                   : AC-3
  78. Format/Info                              : Audio Coding 3
  79. Commercial name                          : Dolby Digital
  80. Codec ID                                 : A_AC3
  81. Duration                                 : 2 h 5 min
  82. Bit rate mode                            : Constant
  83. Bit rate                                 : 640 kb/s
  84. Channel(s)                               : 6 channels
  85. Channel layout                           : L R C LFE Ls Rs
  86. Sampling rate                            : 48.0 kHz
  87. Frame rate                               : 31.250 FPS (1536 SPF)
  88. Compression mode                         : Lossy
  89. Stream size                              : 574 MiB (1%)
  90. Title                                    : DD 5.1
  91. Language                                 : English
  92. Service kind                             : Complete Main
  93. Default                                  : No
  94. Forced                                   : No
  95. Original source medium                   : Blu-ray
  96. Audio #4
  97. ID                                       : 5
  98. ID in the original source medium         : 4353 (0x1101)
  99. Format                                   : AC-3
  100. Format/Info                              : Audio Coding 3
  101. Commercial name                          : Dolby Digital
  102. Codec ID                                 : A_AC3
  103. Duration                                 : 2 h 5 min
  104. Bit rate mode                            : Constant
  105. Bit rate                                 : 640 kb/s
  106. Channel(s)                               : 6 channels
  107. Channel layout                           : L R C LFE Ls Rs
  108. Sampling rate                            : 48.0 kHz
  109. Frame rate                               : 31.250 FPS (1536 SPF)
  110. Compression mode                         : Lossy
  111. Stream size                              : 574 MiB (1%)
  112. Title                                    : DD 5.1
  113. Language                                 : English
  114. Service kind                             : Complete Main
  115. Default                                  : No
  116. Forced                                   : No
  117. Original source medium                   : Blu-ray
  118. Audio #5
  119. ID                                       : 6
  120. ID in the original source medium         : 4354 (0x1102)
  121. Format                                   : AC-3
  122. Format/Info                              : Audio Coding 3
  123. Commercial name                          : Dolby Digital
  124. Codec ID                                 : A_AC3
  125. Duration                                 : 2 h 5 min
  126. Bit rate mode                            : Constant
  127. Bit rate                                 : 640 kb/s
  128. Channel(s)                               : 6 channels
  129. Channel layout                           : L R C LFE Ls Rs
  130. Sampling rate                            : 48.0 kHz
  131. Frame rate                               : 31.250 FPS (1536 SPF)
  132. Compression mode                         : Lossy
  133. Stream size                              : 574 MiB (1%)
  134. Title                                    : DD 5.1
  135. Language                                 : German
  136. Service kind                             : Complete Main
  137. Default                                  : No
  138. Forced                                   : No
  139. Original source medium                   : Blu-ray
  140. Audio #6
  141. ID                                       : 7
  142. ID in the original source medium         : 4355 (0x1103)
  143. Format                                   : AC-3
  144. Format/Info                              : Audio Coding 3
  145. Commercial name                          : Dolby Digital
  146. Codec ID                                 : A_AC3
  147. Duration                                 : 2 h 5 min
  148. Bit rate mode                            : Constant
  149. Bit rate                                 : 640 kb/s
  150. Channel(s)                               : 6 channels
  151. Channel layout                           : L R C LFE Ls Rs
  152. Sampling rate                            : 48.0 kHz
  153. Frame rate                               : 31.250 FPS (1536 SPF)
  154. Compression mode                         : Lossy
  155. Stream size                              : 574 MiB (1%)
  156. Title                                    : DD 5.1
  157. Language                                 : Spanish
  158. Service kind                             : Complete Main
  159. Default                                  : No
  160. Forced                                   : No
  161. Original source medium                   : Blu-ray
  162. Audio #7
  163. ID                                       : 8
  164. ID in the original source medium         : 4356 (0x1104)
  165. Format                                   : AC-3
  166. Format/Info                              : Audio Coding 3
  167. Commercial name                          : Dolby Digital
  168. Codec ID                                 : A_AC3
  169. Duration                                 : 2 h 5 min
  170. Bit rate mode                            : Constant
  171. Bit rate                                 : 640 kb/s
  172. Channel(s)                               : 6 channels
  173. Channel layout                           : L R C LFE Ls Rs
  174. Sampling rate                            : 48.0 kHz
  175. Frame rate                               : 31.250 FPS (1536 SPF)
  176. Compression mode                         : Lossy
  177. Stream size                              : 574 MiB (1%)
  178. Title                                    : DD 5.1
  179. Language                                 : Spanish
  180. Service kind                             : Complete Main
  181. Default                                  : No
  182. Forced                                   : No
  183. Original source medium                   : Blu-ray
  184. Audio #8
  185. ID                                       : 9
  186. ID in the original source medium         : 4357 (0x1105)
  187. Format                                   : AC-3
  188. Format/Info                              : Audio Coding 3
  189. Commercial name                          : Dolby Digital
  190. Codec ID                                 : A_AC3
  191. Duration                                 : 2 h 5 min
  192. Bit rate mode                            : Constant
  193. Bit rate                                 : 640 kb/s
  194. Channel(s)                               : 6 channels
  195. Channel layout                           : L R C LFE Ls Rs
  196. Sampling rate                            : 48.0 kHz
  197. Frame rate                               : 31.250 FPS (1536 SPF)
  198. Compression mode                         : Lossy
  199. Stream size                              : 574 MiB (1%)
  200. Title                                    : DD 5.1
  201. Language                                 : French
  202. Service kind                             : Complete Main
  203. Default                                  : No
  204. Forced                                   : No
  205. Original source medium                   : Blu-ray
  206. Audio #9
  207. ID                                       : 10
  208. ID in the original source medium         : 4358 (0x1106)
  209. Format                                   : AC-3
  210. Format/Info                              : Audio Coding 3
  211. Commercial name                          : Dolby Digital
  212. Codec ID                                 : A_AC3
  213. Duration                                 : 2 h 5 min
  214. Bit rate mode                            : Constant
  215. Bit rate                                 : 640 kb/s
  216. Channel(s)                               : 6 channels
  217. Channel layout                           : L R C LFE Ls Rs
  218. Sampling rate                            : 48.0 kHz
  219. Frame rate                               : 31.250 FPS (1536 SPF)
  220. Compression mode                         : Lossy
  221. Stream size                              : 574 MiB (1%)
  222. Title                                    : DD 5.1
  223. Language                                 : Italian
  224. Service kind                             : Complete Main
  225. Default                                  : No
  226. Forced                                   : No
  227. Original source medium                   : Blu-ray
  228. Audio #10
  229. ID                                       : 11
  230. ID in the original source medium         : 4359 (0x1107)
  231. Format                                   : AC-3
  232. Format/Info                              : Audio Coding 3
  233. Commercial name                          : Dolby Digital
  234. Codec ID                                 : A_AC3
  235. Duration                                 : 2 h 5 min
  236. Bit rate mode                            : Constant
  237. Bit rate                                 : 640 kb/s
  238. Channel(s)                               : 6 channels
  239. Channel layout                           : L R C LFE Ls Rs
  240. Sampling rate                            : 48.0 kHz
  241. Frame rate                               : 31.250 FPS (1536 SPF)
  242. Compression mode                         : Lossy
  243. Stream size                              : 574 MiB (1%)
  244. Title                                    : DD 5.1
  245. Language                                 : Japanese
  246. Service kind                             : Complete Main
  247. Default                                  : No
  248. Forced                                   : No
  249. Original source medium                   : Blu-ray
  250. Audio #11
  251. ID                                       : 12
  252. ID in the original source medium         : 4360 (0x1108)
  253. Format                                   : AC-3
  254. Format/Info                              : Audio Coding 3
  255. Commercial name                          : Dolby Digital
  256. Codec ID                                 : A_AC3
  257. Duration                                 : 2 h 5 min
  258. Bit rate mode                            : Constant
  259. Bit rate                                 : 640 kb/s
  260. Channel(s)                               : 6 channels
  261. Channel layout                           : L R C LFE Ls Rs
  262. Sampling rate                            : 48.0 kHz
  263. Frame rate                               : 31.250 FPS (1536 SPF)
  264. Compression mode                         : Lossy
  265. Stream size                              : 574 MiB (1%)
  266. Title                                    : DD 5.1
  267. Language                                 : Portuguese
  268. Service kind                             : Complete Main
  269. Default                                  : No
  270. Forced                                   : No
  271. Original source medium                   : Blu-ray
  272. Audio #12
  273. ID                                       : 13
  274. ID in the original source medium         : 4361 (0x1109)
  275. Format                                   : AC-3
  276. Format/Info                              : Audio Coding 3
  277. Commercial name                          : Dolby Digital
  278. Format settings                          : Dolby Surround
  279. Codec ID                                 : A_AC3
  280. Duration                                 : 2 h 5 min
  281. Bit rate mode                            : Constant
  282. Bit rate                                 : 192 kb/s
  283. Channel(s)                               : 2 channels
  284. Channel layout                           : L R
  285. Sampling rate                            : 48.0 kHz
  286. Frame rate                               : 31.250 FPS (1536 SPF)
  287. Compression mode                         : Lossy
  288. Stream size                              : 172 MiB (0%)
  289. Title                                    : DD 2.0
  290. Language                                 : English
  291. Service kind                             : Complete Main
  292. Default                                  : No
  293. Forced                                   : No
  294. Original source medium                   : Blu-ray
  295. Text #1
  296. ID                                       : 14
  297. Format                                   : UTF-8
  298. Codec ID                                 : S_TEXT/UTF8
  299. Codec ID/Info                            : UTF-8 Plain Text
  300. Duration                                 : 29 min 40 s
  301. Bit rate                                 : 1 b/s
  302. Frame rate                               : 0.005 FPS
  303. Count of elements                        : 9
  304. Stream size                              : 321 Bytes (0%)
  305. Language                                 : English
  306. Default                                  : Yes
  307. Forced                                   : No
  308. Text #2
  309. ID                                       : 15
  310. Format                                   : UTF-8
  311. Codec ID                                 : S_TEXT/UTF8
  312. Codec ID/Info                            : UTF-8 Plain Text
  313. Duration                                 : 1 h 57 min
  314. Bit rate                                 : 50 b/s
  315. Frame rate                               : 0.171 FPS
  316. Count of elements                        : 1211
  317. Stream size                              : 43.2 KiB (0%)
  318. Title                                    : SDH
  319. Language                                 : English
  320. Default                                  : No
  321. Forced                                   : No
  322. Text #3
  323. ID                                       : 16
  324. Format                                   : UTF-8
  325. Codec ID                                 : S_TEXT/UTF8
  326. Codec ID/Info                            : UTF-8 Plain Text
  327. Duration                                 : 2 h 2 min
  328. Bit rate                                 : 51 b/s
  329. Frame rate                               : 0.189 FPS
  330. Count of elements                        : 1386
  331. Stream size                              : 46.0 KiB (0%)
  332. Language                                 : English
  333. Default                                  : No
  334. Forced                                   : No
  335. Text #4
  336. ID                                       : 17
  337. ID in the original source medium         : 4768 (0x12A0)
  338. Format                                   : PGS
  339. Muxing mode                              : zlib
  340. Codec ID                                 : S_HDMV/PGS
  341. Codec ID/Info                            : Picture based subtitle format used on BDs/HD-DVDs
  342. Duration                                 : 1 h 57 min
  343. Bit rate                                 : 29.5 kb/s
  344. Frame rate                               : 0.341 FPS
  345. Count of elements                        : 2416
  346. Stream size                              : 24.9 MiB (0%)
  347. Language                                 : English
  348. Default                                  : No
  349. Forced                                   : No
  350. Original source medium                   : Blu-ray
  351. Text #5
  352. ID                                       : 18
  353. ID in the original source medium         : 4768 (0x12A0)
  354. Format                                   : PGS
  355. Muxing mode                              : zlib
  356. Codec ID                                 : S_HDMV/PGS
  357. Codec ID/Info                            : Picture based subtitle format used on BDs/HD-DVDs
  358. Duration                                 : 29 min 40 s
  359. Bit rate                                 : 867 b/s
  360. Frame rate                               : 0.010 FPS
  361. Count of elements                        : 18
  362. Stream size                              : 189 KiB (0%)
  363. Language                                 : English
  364. Default                                  : No
  365. Forced                                   : No
  366. Original source medium                   : Blu-ray
  367. Text #6
  368. ID                                       : 19
  369. ID in the original source medium         : 4769 (0x12A1)
  370. Format                                   : PGS
  371. Muxing mode                              : zlib
  372. Codec ID                                 : S_HDMV/PGS
  373. Codec ID/Info                            : Picture based subtitle format used on BDs/HD-DVDs
  374. Duration                                 : 2 h 2 min
  375. Bit rate                                 : 31.9 kb/s
  376. Frame rate                               : 0.379 FPS
  377. Count of elements                        : 2786
  378. Stream size                              : 28.0 MiB (0%)
  379. Language                                 : English
  380. Default                                  : No
  381. Forced                                   : No
  382. Original source medium                   : Blu-ray
  383. Text #7
  384. ID                                       : 20
  385. ID in the original source medium         : 4770 (0x12A2)
  386. Format                                   : PGS
  387. Muxing mode                              : zlib
  388. Codec ID                                 : S_HDMV/PGS
  389. Codec ID/Info                            : Picture based subtitle format used on BDs/HD-DVDs
  390. Duration                                 : 2 h 4 min
  391. Bit rate                                 : 22.2 kb/s
  392. Frame rate                               : 0.313 FPS
  393. Count of elements                        : 2342
  394. Stream size                              : 19.8 MiB (0%)
  395. Language                                 : Danish
  396. Default                                  : No
  397. Forced                                   : No
  398. Original source medium                   : Blu-ray
  399. Text #8
  400. ID                                       : 21
  401. ID in the original source medium         : 4771 (0x12A3)
  402. Format                                   : PGS
  403. Muxing mode                              : zlib
  404. Codec ID                                 : S_HDMV/PGS
  405. Codec ID/Info                            : Picture based subtitle format used on BDs/HD-DVDs
  406. Duration                                 : 1 h 57 min
  407. Bit rate                                 : 31.5 kb/s
  408. Frame rate                               : 0.343 FPS
  409. Count of elements                        : 2430
  410. Stream size                              : 26.5 MiB (0%)
  411. Language                                 : German
  412. Default                                  : No
  413. Forced                                   : No
  414. Original source medium                   : Blu-ray
  415. Text #9
  416. ID                                       : 22
  417. ID in the original source medium         : 4771 (0x12A3)
  418. Format                                   : PGS
  419. Muxing mode                              : zlib
  420. Codec ID                                 : S_HDMV/PGS
  421. Codec ID/Info                            : Picture based subtitle format used on BDs/HD-DVDs
  422. Duration                                 : 1 h 2 min
  423. Bit rate                                 : 384 b/s
  424. Frame rate                               : 0.005 FPS
  425. Count of elements                        : 18
  426. Stream size                              : 177 KiB (0%)
  427. Language                                 : German
  428. Default                                  : No
  429. Forced                                   : No
  430. Original source medium                   : Blu-ray
  431. Text #10
  432. ID                                       : 23
  433. ID in the original source medium         : 4772 (0x12A4)
  434. Format                                   : PGS
  435. Muxing mode                              : zlib
  436. Codec ID                                 : S_HDMV/PGS
  437. Codec ID/Info                            : Picture based subtitle format used on BDs/HD-DVDs
  438. Duration                                 : 2 h 4 min
  439. Bit rate                                 : 23.1 kb/s
  440. Frame rate                               : 0.307 FPS
  441. Count of elements                        : 2302
  442. Stream size                              : 20.6 MiB (0%)
  443. Language                                 : Spanish
  444. Default                                  : No
  445. Forced                                   : No
  446. Original source medium                   : Blu-ray
  447. Text #11
  448. ID                                       : 24
  449. ID in the original source medium         : 4772 (0x12A4)
  450. Format                                   : PGS
  451. Muxing mode                              : zlib
  452. Codec ID                                 : S_HDMV/PGS
  453. Codec ID/Info                            : Picture based subtitle format used on BDs/HD-DVDs
  454. Duration                                 : 1 h 2 min
  455. Bit rate                                 : 456 b/s
  456. Frame rate                               : 0.006 FPS
  457. Count of elements                        : 22
  458. Stream size                              : 210 KiB (0%)
  459. Language                                 : Spanish
  460. Default                                  : No
  461. Forced                                   : No
  462. Original source medium                   : Blu-ray
  463. Text #12
  464. ID                                       : 25
  465. ID in the original source medium         : 4773 (0x12A5)
  466. Format                                   : PGS
  467. Muxing mode                              : zlib
  468. Codec ID                                 : S_HDMV/PGS
  469. Codec ID/Info                            : Picture based subtitle format used on BDs/HD-DVDs
  470. Duration                                 : 1 h 57 min
  471. Bit rate                                 : 27.4 kb/s
  472. Frame rate                               : 0.341 FPS
  473. Count of elements                        : 2416
  474. Stream size                              : 23.1 MiB (0%)
  475. Language                                 : Spanish
  476. Default                                  : No
  477. Forced                                   : No
  478. Original source medium                   : Blu-ray
  479. Text #13
  480. ID                                       : 26
  481. ID in the original source medium         : 4773 (0x12A5)
  482. Format                                   : PGS
  483. Muxing mode                              : zlib
  484. Codec ID                                 : S_HDMV/PGS
  485. Codec ID/Info                            : Picture based subtitle format used on BDs/HD-DVDs
  486. Duration                                 : 1 h 2 min
  487. Bit rate                                 : 470 b/s
  488. Frame rate                               : 0.006 FPS
  489. Count of elements                        : 24
  490. Stream size                              : 216 KiB (0%)
  491. Language                                 : Spanish
  492. Default                                  : No
  493. Forced                                   : No
  494. Original source medium                   : Blu-ray
  495. Text #14
  496. ID                                       : 27
  497. ID in the original source medium         : 4774 (0x12A6)
  498. Format                                   : PGS
  499. Muxing mode                              : zlib
  500. Codec ID                                 : S_HDMV/PGS
  501. Codec ID/Info                            : Picture based subtitle format used on BDs/HD-DVDs
  502. Duration                                 : 1 h 57 min
  503. Bit rate                                 : 21.8 kb/s
  504. Frame rate                               : 0.313 FPS
  505. Count of elements                        : 2214
  506. Stream size                              : 18.4 MiB (0%)
  507. Language                                 : French
  508. Default                                  : No
  509. Forced                                   : No
  510. Original source medium                   : Blu-ray
  511. Text #15
  512. ID                                       : 28
  513. ID in the original source medium         : 4774 (0x12A6)
  514. Format                                   : PGS
  515. Muxing mode                              : zlib
  516. Codec ID                                 : S_HDMV/PGS
  517. Codec ID/Info                            : Picture based subtitle format used on BDs/HD-DVDs
  518. Duration                                 : 1 h 2 min
  519. Bit rate                                 : 424 b/s
  520. Frame rate                               : 0.005 FPS
  521. Count of elements                        : 20
  522. Stream size                              : 195 KiB (0%)
  523. Language                                 : French
  524. Default                                  : No
  525. Forced                                   : No
  526. Original source medium                   : Blu-ray
  527. Text #16
  528. ID                                       : 29
  529. ID in the original source medium         : 4775 (0x12A7)
  530. Format                                   : PGS
  531. Muxing mode                              : zlib
  532. Codec ID                                 : S_HDMV/PGS
  533. Codec ID/Info                            : Picture based subtitle format used on BDs/HD-DVDs
  534. Duration                                 : 2 h 4 min
  535. Bit rate                                 : 25.4 kb/s
  536. Frame rate                               : 0.310 FPS
  537. Count of elements                        : 2320
  538. Stream size                              : 22.7 MiB (0%)
  539. Language                                 : Italian
  540. Default                                  : No
  541. Forced                                   : No
  542. Original source medium                   : Blu-ray
  543. Text #17
  544. ID                                       : 30
  545. ID in the original source medium         : 4775 (0x12A7)
  546. Format                                   : PGS
  547. Muxing mode                              : zlib
  548. Codec ID                                 : S_HDMV/PGS
  549. Codec ID/Info                            : Picture based subtitle format used on BDs/HD-DVDs
  550. Duration                                 : 1 h 2 min
  551. Bit rate                                 : 279 b/s
  552. Frame rate                               : 0.003 FPS
  553. Count of elements                        : 10
  554. Stream size                              : 128 KiB (0%)
  555. Language                                 : Italian
  556. Default                                  : No
  557. Forced                                   : No
  558. Original source medium                   : Blu-ray
  559. Text #18
  560. ID                                       : 31
  561. ID in the original source medium         : 4776 (0x12A8)
  562. Format                                   : PGS
  563. Muxing mode                              : zlib
  564. Codec ID                                 : S_HDMV/PGS
  565. Codec ID/Info                            : Picture based subtitle format used on BDs/HD-DVDs
  566. Duration                                 : 1 h 57 min
  567. Bit rate                                 : 18.2 kb/s
  568. Frame rate                               : 0.311 FPS
  569. Count of elements                        : 2200
  570. Stream size                              : 15.4 MiB (0%)
  571. Language                                 : Japanese
  572. Default                                  : No
  573. Forced                                   : No
  574. Original source medium                   : Blu-ray
  575. Text #19
  576. ID                                       : 32
  577. ID in the original source medium         : 4777 (0x12A9)
  578. Format                                   : PGS
  579. Muxing mode                              : zlib
  580. Codec ID                                 : S_HDMV/PGS
  581. Codec ID/Info                            : Picture based subtitle format used on BDs/HD-DVDs
  582. Duration                                 : 2 h 4 min
  583. Bit rate                                 : 19.9 kb/s
  584. Frame rate                               : 0.300 FPS
  585. Count of elements                        : 2244
  586. Stream size                              : 17.8 MiB (0%)
  587. Language                                 : Dutch
  588. Default                                  : No
  589. Forced                                   : No
  590. Original source medium                   : Blu-ray
  591. Text #20
  592. ID                                       : 33
  593. ID in the original source medium         : 4778 (0x12AA)
  594. Format                                   : PGS
  595. Muxing mode                              : zlib
  596. Codec ID                                 : S_HDMV/PGS
  597. Codec ID/Info                            : Picture based subtitle format used on BDs/HD-DVDs
  598. Duration                                 : 2 h 4 min
  599. Bit rate                                 : 19.4 kb/s
  600. Frame rate                               : 0.312 FPS
  601. Count of elements                        : 2340
  602. Stream size                              : 17.3 MiB (0%)
  603. Language                                 : Norwegian
  604. Default                                  : No
  605. Forced                                   : No
  606. Original source medium                   : Blu-ray
  607. Text #21
  608. ID                                       : 34
  609. ID in the original source medium         : 4779 (0x12AB)
  610. Format                                   : PGS
  611. Muxing mode                              : zlib
  612. Codec ID                                 : S_HDMV/PGS
  613. Codec ID/Info                            : Picture based subtitle format used on BDs/HD-DVDs
  614. Duration                                 : 2 h 4 min
  615. Bit rate                                 : 23.3 kb/s
  616. Frame rate                               : 0.325 FPS
  617. Count of elements                        : 2432
  618. Stream size                              : 20.8 MiB (0%)
  619. Language                                 : Portuguese
  620. Default                                  : No
  621. Forced                                   : No
  622. Original source medium                   : Blu-ray
  623. Text #22
  624. ID                                       : 35
  625. ID in the original source medium         : 4779 (0x12AB)
  626. Format                                   : PGS
  627. Muxing mode                              : zlib
  628. Codec ID                                 : S_HDMV/PGS
  629. Codec ID/Info                            : Picture based subtitle format used on BDs/HD-DVDs
  630. Duration                                 : 1 h 15 min
  631. Bit rate                                 : 406 b/s
  632. Frame rate                               : 0.006 FPS
  633. Count of elements                        : 26
  634. Stream size                              : 224 KiB (0%)
  635. Language                                 : Portuguese
  636. Default                                  : No
  637. Forced                                   : No
  638. Original source medium                   : Blu-ray
  639. Text #23
  640. ID                                       : 36
  641. ID in the original source medium         : 4780 (0x12AC)
  642. Format                                   : PGS
  643. Muxing mode                              : zlib
  644. Codec ID                                 : S_HDMV/PGS
  645. Codec ID/Info                            : Picture based subtitle format used on BDs/HD-DVDs
  646. Duration                                 : 2 h 4 min
  647. Bit rate                                 : 23.6 kb/s
  648. Frame rate                               : 0.321 FPS
  649. Count of elements                        : 2402
  650. Stream size                              : 21.1 MiB (0%)
  651. Language                                 : Finnish
  652. Default                                  : No
  653. Forced                                   : No
  654. Original source medium                   : Blu-ray
  655. Text #24
  656. ID                                       : 37
  657. ID in the original source medium         : 4781 (0x12AD)
  658. Format                                   : PGS
  659. Muxing mode                              : zlib
  660. Codec ID                                 : S_HDMV/PGS
  661. Codec ID/Info                            : Picture based subtitle format used on BDs/HD-DVDs
  662. Duration                                 : 2 h 4 min
  663. Bit rate                                 : 23.1 kb/s
  664. Frame rate                               : 0.316 FPS
  665. Count of elements                        : 2364
  666. Stream size                              : 20.7 MiB (0%)
  667. Language                                 : Swedish
  668. Default                                  : No
  669. Forced                                   : No
  670. Original source medium                   : Blu-ray
  671. Text #25
  672. ID                                       : 38
  673. ID in the original source medium         : 4782 (0x12AE)
  674. Format                                   : PGS
  675. Muxing mode                              : zlib
  676. Codec ID                                 : S_HDMV/PGS
  677. Codec ID/Info                            : Picture based subtitle format used on BDs/HD-DVDs
  678. Duration                                 : 2 h 5 min
  679. Bit rate                                 : 67.8 kb/s
  680. Frame rate                               : 0.633 FPS
  681. Count of elements                        : 4754
  682. Stream size                              : 60.7 MiB (0%)
  683. Language                                 : English
  684. Default                                  : No
  685. Forced                                   : No
  686. Original source medium                   : Blu-ray
  687. Text #26
  688. ID                                       : 39
  689. ID in the original source medium         : 4783 (0x12AF)
  690. Format                                   : PGS
  691. Muxing mode                              : zlib
  692. Codec ID                                 : S_HDMV/PGS
  693. Codec ID/Info                            : Picture based subtitle format used on BDs/HD-DVDs
  694. Duration                                 : 2 h 5 min
  695. Bit rate                                 : 65.1 kb/s
  696. Frame rate                               : 0.626 FPS
  697. Count of elements                        : 4708
  698. Stream size                              : 58.3 MiB (0%)
  699. Language                                 : German
  700. Default                                  : No
  701. Forced                                   : No
  702. Original source medium                   : Blu-ray
  703. Text #27
  704. ID                                       : 40
  705. ID in the original source medium         : 4784 (0x12B0)
  706. Format                                   : PGS
  707. Muxing mode                              : zlib
  708. Codec ID                                 : S_HDMV/PGS
  709. Codec ID/Info                            : Picture based subtitle format used on BDs/HD-DVDs
  710. Duration                                 : 2 h 5 min
  711. Bit rate                                 : 59.7 kb/s
  712. Frame rate                               : 0.627 FPS
  713. Count of elements                        : 4712
  714. Stream size                              : 53.5 MiB (0%)
  715. Language                                 : Spanish
  716. Default                                  : No
  717. Forced                                   : No
  718. Original source medium                   : Blu-ray
  719. Text #28
  720. ID                                       : 41
  721. ID in the original source medium         : 4785 (0x12B1)
  722. Format                                   : PGS
  723. Muxing mode                              : zlib
  724. Codec ID                                 : S_HDMV/PGS
  725. Codec ID/Info                            : Picture based subtitle format used on BDs/HD-DVDs
  726. Duration                                 : 2 h 5 min
  727. Bit rate                                 : 56.8 kb/s
  728. Frame rate                               : 0.629 FPS
  729. Count of elements                        : 4732
  730. Stream size                              : 50.9 MiB (0%)
  731. Language                                 : Spanish
  732. Default                                  : No
  733. Forced                                   : No
  734. Original source medium                   : Blu-ray
  735. Text #29
  736. ID                                       : 42
  737. ID in the original source medium         : 4786 (0x12B2)
  738. Format                                   : PGS
  739. Muxing mode                              : zlib
  740. Codec ID                                 : S_HDMV/PGS
  741. Codec ID/Info                            : Picture based subtitle format used on BDs/HD-DVDs
  742. Duration                                 : 2 h 5 min
  743. Bit rate                                 : 58.1 kb/s
  744. Frame rate                               : 0.628 FPS
  745. Count of elements                        : 4718
  746. Stream size                              : 52.0 MiB (0%)
  747. Language                                 : French
  748. Default                                  : No
  749. Forced                                   : No
  750. Original source medium                   : Blu-ray
  751. Text #30
  752. ID                                       : 43
  753. ID in the original source medium         : 4787 (0x12B3)
  754. Format                                   : PGS
  755. Muxing mode                              : zlib
  756. Codec ID                                 : S_HDMV/PGS
  757. Codec ID/Info                            : Picture based subtitle format used on BDs/HD-DVDs
  758. Duration                                 : 2 h 5 min
  759. Bit rate                                 : 58.0 kb/s
  760. Frame rate                               : 0.627 FPS
  761. Count of elements                        : 4712
  762. Stream size                              : 52.0 MiB (0%)
  763. Language                                 : Italian
  764. Default                                  : No
  765. Forced                                   : No
  766. Original source medium                   : Blu-ray
  767. Text #31
  768. ID                                       : 44
  769. ID in the original source medium         : 4788 (0x12B4)
  770. Format                                   : PGS
  771. Muxing mode                              : zlib
  772. Codec ID                                 : S_HDMV/PGS
  773. Codec ID/Info                            : Picture based subtitle format used on BDs/HD-DVDs
  774. Duration                                 : 2 h 5 min
  775. Bit rate                                 : 41.4 kb/s
  776. Frame rate                               : 0.499 FPS
  777. Count of elements                        : 3749
  778. Stream size                              : 37.1 MiB (0%)
  779. Language                                 : Japanese
  780. Default                                  : No
  781. Forced                                   : No
  782. Original source medium                   : Blu-ray
  783. Text #32
  784. ID                                       : 45
  785. ID in the original source medium         : 4789 (0x12B5)
  786. Format                                   : PGS
  787. Muxing mode                              : zlib
  788. Codec ID                                 : S_HDMV/PGS
  789. Codec ID/Info                            : Picture based subtitle format used on BDs/HD-DVDs
  790. Duration                                 : 2 h 5 min
  791. Bit rate                                 : 57.8 kb/s
  792. Frame rate                               : 0.627 FPS
  793. Count of elements                        : 4710
  794. Stream size                              : 51.8 MiB (0%)
  795. Language                                 : Portuguese
  796. Default                                  : No
  797. Forced                                   : No
  798. Original source medium                   : Blu-ray
  799. Text #33
  800. ID                                       : 46
  801. ID in the original source medium         : 4790 (0x12B6)
  802. Format                                   : PGS
  803. Muxing mode                              : zlib
  804. Codec ID                                 : S_HDMV/PGS
  805. Codec ID/Info                            : Picture based subtitle format used on BDs/HD-DVDs
  806. Duration                                 : 1 h 8 min
  807. Bit rate                                 : 441 b/s
  808. Frame rate                               : 0.009 FPS
  809. Count of elements                        : 36
  810. Stream size                              : 223 KiB (0%)
  811. Language                                 : Japanese
  812. Default                                  : No
  813. Forced                                   : No
  814. Original source medium                   : Blu-ray
  815. Menu
  816. 00:00:00.000                             : en:Chapter 01
  817. 00:04:02.367                             : en:Chapter 02
  818. 00:12:57.818                             : en:Chapter 03
  819. 00:21:18.068                             : en:Chapter 04
  820. 00:26:32.299                             : en:Chapter 05
  821. 00:32:56.224                             : en:Chapter 06
  822. 00:39:30.493                             : en:Chapter 07
  823. 00:46:56.271                             : en:Chapter 08
  824. 00:51:44.309                             : en:Chapter 09
  825. 00:57:34.868                             : en:Chapter 10
  826. 01:02:08.975                             : en:Chapter 11
  827. 01:09:06.642                             : en:Chapter 12
  828. 01:18:19.236                             : en:Chapter 13
  829. 01:23:31.381                             : en:Chapter 14
  830. 01:27:35.083                             : en:Chapter 15
  831. 01:34:08.017                             : en:Chapter 16
  832. 01:42:43.448                             : en:Chapter 17
  833. 01:51:10.830                             : en:Chapter 18
  834. 01:57:27.832                             : en:Chapter 19
复制代码

055453kxlrqtyrqe0xcqnd.jpg

055457ryuyyom7ktrjgyvv.jpg

055502ucmqqmjej0cbe53t.jpg



Hao8k.cn提示您 点击下方附件名称 即可开始下载

碟中谍3.Mission.Impossible.III.2006.PROPER.2160p.BluRay.REMUX.HEVC.DTS-HD.MA.TrueHD.5.1-FGT 57.67GB

Mission.Impossible.III.2006.PROPER.2160p.BluRay.REMUX.HEVC.DTS-HD.MA.TrueHD.5.1-FGT.torrent ( 72.77 KB )

回复

使用道具 举报

全部回复0 显示全部楼层

声明:您在社区发表的所有信息仅代表用户个人观点,与本网站立场无关,希望各位烧友理性发言,不发表违法国家法律禁止的话题。

您需要登录后才可以回帖 登录 | 立即注册

本版积分规则

开通会员 每日签到 返回顶部 返回列表