开启左侧

碟中谍6:全面瓦解.Mission.Impossible.Fallout.2018.PROPER.IMAX.2160p.BluRay.REMUX.HEVC.DTS-HD.MA.TrueHD.7.1.Atmos-FGT 86.44GB

Hao8k资源组 发表于 2023-1-19 23:37:37 | 显示全部楼层 |阅读模式
画质标准:
REMUX.HEVC 2160p 
音质编码:
Dolby-Atmos Dolby-TrueHD DTS-HD Master Audio 
电影声道:
7.1声道


电影封面

马上注册 Hao8k.cn ,获得更好的体验,让你轻松玩转Hao8k

您需要 登录 才可以下载或查看,没有帐号?立即注册

x
055750zwbl2uis2b2wb232.jpg


标  题 碟中谍6:全面瓦解
译  名 碟中谍6 / 职业特工队:叛逆之谜(港) / 不可能的任务:全面瓦解(台) / Mission: Impossible 6 / MI6
       孙薇晨 Wei-Chen Sun
       康纳·沃尔夫 Connor Wolf
       斯图尔特·戴维森 Stuart Davidson
       亚历克西斯·巴尔博萨 Alexis Barbosa
       皮埃尔·伯格曼 Pierre Bergman
简  介

伊森·亨特(汤姆·克鲁斯饰)和队友们接到了追回三个大杀伤性核武器的任务。眼见任务马上就能完成,但为了挽救其中一位队友卢瑟(文·瑞姆斯饰)的生命,三个核武器被人趁机带走。中情局负责人斯隆女士(安吉拉·贝塞特饰)调来她手下的得意猛将沃克(亨利·卡维尔饰),让他盯着伊森·亨特完成追回核武器的任务。期间,女特工伊尔莎(丽贝卡·弗格森饰)突然出现,伊森·亨特发现,他要面对的并不只是恐怖分子,还有潜藏在政府部门的内鬼。

影片参数
  1. Video
  2. ID                                       : 1
  3. ID in the original source medium         : 4113 (0x1011)
  4. Format                                   : HEVC
  5. Format/Info                              : High Efficiency Video Coding
  6. Format profile                           : Main [email protected]@High
  7. HDR format                               : Dolby Vision, Version 1.0, dvhe.07.06, BL+EL+RPU, Blu-ray compatible / SMPTE ST 2086, HDR10 compatible
  8. Codec ID                                 : V_MPEGH/ISO/HEVC
  9. Duration                                 : 2 h 27 min
  10. Bit rate                                 : 68.5 Mb/s
  11. Width                                    : 3 840 pixels
  12. Height                                   : 2 160 pixels
  13. Display aspect ratio                     : 16:9
  14. Frame rate mode                          : Constant
  15. Frame rate                               : 23.976 (24000/1001) FPS
  16. Color space                              : YUV
  17. Chroma subsampling                       : 4:2:0 (Type 2)
  18. Bit depth                                : 10 bits
  19. Bits/(Pixel*Frame)                       : 0.344
  20. Stream size                              : 70.5 GiB (82%)
  21. Language                                 : English
  22. Default                                  : No
  23. Forced                                   : No
  24. Color range                              : Limited
  25. Color primaries                          : BT.2020
  26. Transfer characteristics                 : PQ
  27. Matrix coefficients                      : BT.2020 non-constant
  28. Mastering display color primaries        : Display P3
  29. Mastering display luminance              : min: 0.0001 cd/m2, max: 1000 cd/m2
  30. Original source medium                   : Blu-ray
  31. Audio #1
  32. ID                                       : 2
  33. ID in the original source medium         : 4352 (0x1100)
  34. Format                                   : MLP FBA 16-ch
  35. Format/Info                              : Meridian Lossless Packing FBA with 16-channel presentation
  36. Commercial name                          : Dolby TrueHD with Dolby Atmos
  37. Codec ID                                 : A_TRUEHD
  38. Duration                                 : 2 h 27 min
  39. Bit rate mode                            : Variable
  40. Bit rate                                 : 5 026 kb/s
  41. Maximum bit rate                         : 8 175 kb/s
  42. Channel(s)                               : 8 channels
  43. Channel layout                           : L R C LFE Ls Rs Lb Rb
  44. Sampling rate                            : 48.0 kHz
  45. Frame rate                               : 1 200.000 FPS (40 SPF)
  46. Bit depth                                : 24 bits
  47. Compression mode                         : Lossless
  48. Stream size                              : 5.17 GiB (6%)
  49. Title                                    : TrueHD 7.1 Atmos
  50. Language                                 : English
  51. Default                                  : Yes
  52. Forced                                   : No
  53. Original source medium                   : Blu-ray
  54. Number of dynamic objects                : 11
  55. Bed channel count                        : 1 channel
  56. Bed channel configuration                : LFE
  57. Audio #2
  58. ID                                       : 3
  59. Format                                   : DTS XLL
  60. Format/Info                              : Digital Theater Systems
  61. Commercial name                          : DTS-HD Master Audio
  62. Codec ID                                 : A_DTS
  63. Duration                                 : 2 h 27 min
  64. Bit rate mode                            : Variable
  65. Bit rate                                 : 4 182 kb/s
  66. Channel(s)                               : 8 channels
  67. Channel layout                           : C L R LFE Lb Rb Lss Rss
  68. Sampling rate                            : 48.0 kHz
  69. Frame rate                               : 93.750 FPS (512 SPF)
  70. Bit depth                                : 24 bits
  71. Compression mode                         : Lossless
  72. Stream size                              : 4.31 GiB (5%)
  73. Title                                    : DTS-HD MA 7.1
  74. Language                                 : English
  75. Default                                  : No
  76. Forced                                   : No
  77. Audio #3
  78. ID                                       : 4
  79. ID in the original source medium         : 4352 (0x1100)
  80. Format                                   : AC-3
  81. Format/Info                              : Audio Coding 3
  82. Commercial name                          : Dolby Digital
  83. Format settings                          : Dolby Surround EX
  84. Codec ID                                 : A_AC3
  85. Duration                                 : 2 h 27 min
  86. Bit rate mode                            : Constant
  87. Bit rate                                 : 640 kb/s
  88. Channel(s)                               : 6 channels
  89. Channel layout                           : L R C LFE Ls Rs
  90. Sampling rate                            : 48.0 kHz
  91. Frame rate                               : 31.250 FPS (1536 SPF)
  92. Compression mode                         : Lossy
  93. Stream size                              : 675 MiB (1%)
  94. Title                                    : DD 5.1
  95. Language                                 : English
  96. Service kind                             : Complete Main
  97. Default                                  : No
  98. Forced                                   : No
  99. Original source medium                   : Blu-ray
  100. Audio #4
  101. ID                                       : 5
  102. ID in the original source medium         : 4353 (0x1101)
  103. Format                                   : AC-3
  104. Format/Info                              : Audio Coding 3
  105. Commercial name                          : Dolby Digital
  106. Codec ID                                 : A_AC3
  107. Duration                                 : 2 h 27 min
  108. Bit rate mode                            : Constant
  109. Bit rate                                 : 640 kb/s
  110. Channel(s)                               : 6 channels
  111. Channel layout                           : L R C LFE Ls Rs
  112. Sampling rate                            : 48.0 kHz
  113. Frame rate                               : 31.250 FPS (1536 SPF)
  114. Compression mode                         : Lossy
  115. Stream size                              : 675 MiB (1%)
  116. Title                                    : DD 5.1
  117. Language                                 : English
  118. Service kind                             : Complete Main
  119. Default                                  : No
  120. Forced                                   : No
  121. Original source medium                   : Blu-ray
  122. Audio #5
  123. ID                                       : 6
  124. ID in the original source medium         : 4354 (0x1102)
  125. Format                                   : AC-3
  126. Format/Info                              : Audio Coding 3
  127. Commercial name                          : Dolby Digital
  128. Codec ID                                 : A_AC3
  129. Duration                                 : 2 h 27 min
  130. Bit rate mode                            : Constant
  131. Bit rate                                 : 640 kb/s
  132. Channel(s)                               : 6 channels
  133. Channel layout                           : L R C LFE Ls Rs
  134. Sampling rate                            : 48.0 kHz
  135. Frame rate                               : 31.250 FPS (1536 SPF)
  136. Compression mode                         : Lossy
  137. Stream size                              : 675 MiB (1%)
  138. Title                                    : DD 5.1
  139. Language                                 : Spanish
  140. Service kind                             : Complete Main
  141. Default                                  : No
  142. Forced                                   : No
  143. Original source medium                   : Blu-ray
  144. Audio #6
  145. ID                                       : 7
  146. ID in the original source medium         : 4355 (0x1103)
  147. Format                                   : AC-3
  148. Format/Info                              : Audio Coding 3
  149. Commercial name                          : Dolby Digital
  150. Codec ID                                 : A_AC3
  151. Duration                                 : 2 h 27 min
  152. Bit rate mode                            : Constant
  153. Bit rate                                 : 640 kb/s
  154. Channel(s)                               : 6 channels
  155. Channel layout                           : L R C LFE Ls Rs
  156. Sampling rate                            : 48.0 kHz
  157. Frame rate                               : 31.250 FPS (1536 SPF)
  158. Compression mode                         : Lossy
  159. Stream size                              : 675 MiB (1%)
  160. Title                                    : DD 5.1
  161. Language                                 : Spanish
  162. Service kind                             : Complete Main
  163. Default                                  : No
  164. Forced                                   : No
  165. Original source medium                   : Blu-ray
  166. Audio #7
  167. ID                                       : 8
  168. ID in the original source medium         : 4356 (0x1104)
  169. Format                                   : AC-3
  170. Format/Info                              : Audio Coding 3
  171. Commercial name                          : Dolby Digital
  172. Codec ID                                 : A_AC3
  173. Duration                                 : 2 h 27 min
  174. Bit rate mode                            : Constant
  175. Bit rate                                 : 640 kb/s
  176. Channel(s)                               : 6 channels
  177. Channel layout                           : L R C LFE Ls Rs
  178. Sampling rate                            : 48.0 kHz
  179. Frame rate                               : 31.250 FPS (1536 SPF)
  180. Compression mode                         : Lossy
  181. Stream size                              : 675 MiB (1%)
  182. Title                                    : DD 5.1
  183. Language                                 : French
  184. Service kind                             : Complete Main
  185. Default                                  : No
  186. Forced                                   : No
  187. Original source medium                   : Blu-ray
  188. Audio #8
  189. ID                                       : 9
  190. ID in the original source medium         : 4357 (0x1105)
  191. Format                                   : AC-3
  192. Format/Info                              : Audio Coding 3
  193. Commercial name                          : Dolby Digital
  194. Codec ID                                 : A_AC3
  195. Duration                                 : 2 h 27 min
  196. Bit rate mode                            : Constant
  197. Bit rate                                 : 640 kb/s
  198. Channel(s)                               : 6 channels
  199. Channel layout                           : L R C LFE Ls Rs
  200. Sampling rate                            : 48.0 kHz
  201. Frame rate                               : 31.250 FPS (1536 SPF)
  202. Compression mode                         : Lossy
  203. Stream size                              : 675 MiB (1%)
  204. Title                                    : DD 5.1
  205. Language                                 : French
  206. Service kind                             : Complete Main
  207. Default                                  : No
  208. Forced                                   : No
  209. Original source medium                   : Blu-ray
  210. Audio #9
  211. ID                                       : 10
  212. ID in the original source medium         : 4358 (0x1106)
  213. Format                                   : AC-3
  214. Format/Info                              : Audio Coding 3
  215. Commercial name                          : Dolby Digital
  216. Codec ID                                 : A_AC3
  217. Duration                                 : 2 h 27 min
  218. Bit rate mode                            : Constant
  219. Bit rate                                 : 640 kb/s
  220. Channel(s)                               : 6 channels
  221. Channel layout                           : L R C LFE Ls Rs
  222. Sampling rate                            : 48.0 kHz
  223. Frame rate                               : 31.250 FPS (1536 SPF)
  224. Compression mode                         : Lossy
  225. Stream size                              : 675 MiB (1%)
  226. Title                                    : DD 5.1
  227. Language                                 : Portuguese
  228. Service kind                             : Complete Main
  229. Default                                  : No
  230. Forced                                   : No
  231. Original source medium                   : Blu-ray
  232. Audio #10
  233. ID                                       : 11
  234. ID in the original source medium         : 4359 (0x1107)
  235. Format                                   : AC-3
  236. Format/Info                              : Audio Coding 3
  237. Commercial name                          : Dolby Digital
  238. Codec ID                                 : A_AC3
  239. Duration                                 : 2 h 27 min
  240. Bit rate mode                            : Constant
  241. Bit rate                                 : 224 kb/s
  242. Channel(s)                               : 2 channels
  243. Channel layout                           : L R
  244. Sampling rate                            : 48.0 kHz
  245. Frame rate                               : 31.250 FPS (1536 SPF)
  246. Compression mode                         : Lossy
  247. Stream size                              : 236 MiB (0%)
  248. Title                                    : DD 2.0
  249. Language                                 : English
  250. Service kind                             : Complete Main
  251. Default                                  : No
  252. Forced                                   : No
  253. Original source medium                   : Blu-ray
  254. Audio #11
  255. ID                                       : 12
  256. ID in the original source medium         : 4360 (0x1108)
  257. Format                                   : AC-3
  258. Format/Info                              : Audio Coding 3
  259. Commercial name                          : Dolby Digital
  260. Codec ID                                 : A_AC3
  261. Duration                                 : 2 h 27 min
  262. Bit rate mode                            : Constant
  263. Bit rate                                 : 224 kb/s
  264. Channel(s)                               : 2 channels
  265. Channel layout                           : L R
  266. Sampling rate                            : 48.0 kHz
  267. Frame rate                               : 31.250 FPS (1536 SPF)
  268. Compression mode                         : Lossy
  269. Stream size                              : 236 MiB (0%)
  270. Title                                    : DD 2.0
  271. Language                                 : English
  272. Service kind                             : Complete Main
  273. Default                                  : No
  274. Forced                                   : No
  275. Original source medium                   : Blu-ray
  276. Audio #12
  277. ID                                       : 13
  278. ID in the original source medium         : 4361 (0x1109)
  279. Format                                   : AC-3
  280. Format/Info                              : Audio Coding 3
  281. Commercial name                          : Dolby Digital
  282. Codec ID                                 : A_AC3
  283. Duration                                 : 2 h 27 min
  284. Bit rate mode                            : Constant
  285. Bit rate                                 : 224 kb/s
  286. Channel(s)                               : 2 channels
  287. Channel layout                           : L R
  288. Sampling rate                            : 48.0 kHz
  289. Frame rate                               : 31.250 FPS (1536 SPF)
  290. Compression mode                         : Lossy
  291. Stream size                              : 236 MiB (0%)
  292. Title                                    : DD 2.0
  293. Language                                 : English
  294. Service kind                             : Complete Main
  295. Default                                  : No
  296. Forced                                   : No
  297. Original source medium                   : Blu-ray
  298. Audio #13
  299. ID                                       : 14
  300. ID in the original source medium         : 4362 (0x110A)
  301. Format                                   : AC-3
  302. Format/Info                              : Audio Coding 3
  303. Commercial name                          : Dolby Digital
  304. Codec ID                                 : A_AC3
  305. Duration                                 : 2 h 27 min
  306. Bit rate mode                            : Constant
  307. Bit rate                                 : 640 kb/s
  308. Channel(s)                               : 6 channels
  309. Channel layout                           : L R C LFE Ls Rs
  310. Sampling rate                            : 48.0 kHz
  311. Frame rate                               : 31.250 FPS (1536 SPF)
  312. Compression mode                         : Lossy
  313. Stream size                              : 675 MiB (1%)
  314. Title                                    : DD 5.1
  315. Language                                 : English
  316. Service kind                             : Complete Main
  317. Default                                  : No
  318. Forced                                   : No
  319. Original source medium                   : Blu-ray
  320. Text #1
  321. ID                                       : 15
  322. Format                                   : UTF-8
  323. Codec ID                                 : S_TEXT/UTF8
  324. Codec ID/Info                            : UTF-8 Plain Text
  325. Duration                                 : 32 min 11 s
  326. Bit rate                                 : 1 b/s
  327. Frame rate                               : 0.011 FPS
  328. Count of elements                        : 21
  329. Stream size                              : 447 Bytes (0%)
  330. Title                                    : FORCED
  331. Language                                 : English
  332. Default                                  : No
  333. Forced                                   : Yes
  334. Text #2
  335. ID                                       : 16
  336. Format                                   : UTF-8
  337. Codec ID                                 : S_TEXT/UTF8
  338. Codec ID/Info                            : UTF-8 Plain Text
  339. Duration                                 : 2 h 19 min
  340. Bit rate                                 : 47 b/s
  341. Frame rate                               : 0.185 FPS
  342. Count of elements                        : 1549
  343. Stream size                              : 48.2 KiB (0%)
  344. Language                                 : English
  345. Default                                  : Yes
  346. Forced                                   : No
  347. Text #3
  348. ID                                       : 17
  349. Format                                   : UTF-8
  350. Codec ID                                 : S_TEXT/UTF8
  351. Codec ID/Info                            : UTF-8 Plain Text
  352. Duration                                 : 2 h 19 min
  353. Bit rate                                 : 52 b/s
  354. Frame rate                               : 0.222 FPS
  355. Count of elements                        : 1854
  356. Stream size                              : 53.8 KiB (0%)
  357. Title                                    : SDH
  358. Language                                 : English
  359. Default                                  : No
  360. Forced                                   : No
  361. Text #4
  362. ID                                       : 18
  363. ID in the original source medium         : 4768 (0x12A0)
  364. Format                                   : PGS
  365. Muxing mode                              : zlib
  366. Codec ID                                 : S_HDMV/PGS
  367. Codec ID/Info                            : Picture based subtitle format used on BDs/HD-DVDs
  368. Duration                                 : 2 h 19 min
  369. Bit rate                                 : 28.4 kb/s
  370. Frame rate                               : 0.373 FPS
  371. Count of elements                        : 3111
  372. Stream size                              : 28.3 MiB (0%)
  373. Language                                 : English
  374. Default                                  : No
  375. Forced                                   : No
  376. Original source medium                   : Blu-ray
  377. Text #5
  378. ID                                       : 19
  379. ID in the original source medium         : 4768 (0x12A0)
  380. Format                                   : PGS
  381. Muxing mode                              : zlib
  382. Codec ID                                 : S_HDMV/PGS
  383. Codec ID/Info                            : Picture based subtitle format used on BDs/HD-DVDs
  384. Duration                                 : 32 min 11 s
  385. Bit rate                                 : 622 b/s
  386. Frame rate                               : 0.019 FPS
  387. Count of elements                        : 37
  388. Stream size                              : 147 KiB (0%)
  389. Language                                 : English
  390. Default                                  : No
  391. Forced                                   : No
  392. Original source medium                   : Blu-ray
  393. Text #6
  394. ID                                       : 20
  395. ID in the original source medium         : 4769 (0x12A1)
  396. Format                                   : PGS
  397. Muxing mode                              : zlib
  398. Codec ID                                 : S_HDMV/PGS
  399. Codec ID/Info                            : Picture based subtitle format used on BDs/HD-DVDs
  400. Duration                                 : 2 h 19 min
  401. Bit rate                                 : 33.7 kb/s
  402. Frame rate                               : 0.449 FPS
  403. Count of elements                        : 3747
  404. Stream size                              : 33.5 MiB (0%)
  405. Language                                 : English
  406. Default                                  : No
  407. Forced                                   : No
  408. Original source medium                   : Blu-ray
  409. Text #7
  410. ID                                       : 21
  411. ID in the original source medium         : 4770 (0x12A2)
  412. Format                                   : PGS
  413. Muxing mode                              : zlib
  414. Codec ID                                 : S_HDMV/PGS
  415. Codec ID/Info                            : Picture based subtitle format used on BDs/HD-DVDs
  416. Duration                                 : 2 h 26 min
  417. Bit rate                                 : 23.6 kb/s
  418. Frame rate                               : 0.253 FPS
  419. Count of elements                        : 2225
  420. Stream size                              : 24.8 MiB (0%)
  421. Language                                 : Danish
  422. Default                                  : No
  423. Forced                                   : No
  424. Original source medium                   : Blu-ray
  425. Text #8
  426. ID                                       : 22
  427. ID in the original source medium         : 4771 (0x12A3)
  428. Format                                   : PGS
  429. Muxing mode                              : zlib
  430. Codec ID                                 : S_HDMV/PGS
  431. Codec ID/Info                            : Picture based subtitle format used on BDs/HD-DVDs
  432. Duration                                 : 2 h 26 min
  433. Bit rate                                 : 26.5 kb/s
  434. Frame rate                               : 0.322 FPS
  435. Count of elements                        : 2837
  436. Stream size                              : 27.8 MiB (0%)
  437. Language                                 : Spanish
  438. Default                                  : No
  439. Forced                                   : No
  440. Original source medium                   : Blu-ray
  441. Text #9
  442. ID                                       : 23
  443. ID in the original source medium         : 4771 (0x12A3)
  444. Format                                   : PGS
  445. Muxing mode                              : zlib
  446. Codec ID                                 : S_HDMV/PGS
  447. Codec ID/Info                            : Picture based subtitle format used on BDs/HD-DVDs
  448. Duration                                 : 2 h 2 min
  449. Bit rate                                 : 488 b/s
  450. Frame rate                               : 0.010 FPS
  451. Count of elements                        : 71
  452. Stream size                              : 440 KiB (0%)
  453. Language                                 : Spanish
  454. Default                                  : No
  455. Forced                                   : No
  456. Original source medium                   : Blu-ray
  457. Text #10
  458. ID                                       : 24
  459. ID in the original source medium         : 4772 (0x12A4)
  460. Format                                   : PGS
  461. Muxing mode                              : zlib
  462. Codec ID                                 : S_HDMV/PGS
  463. Codec ID/Info                            : Picture based subtitle format used on BDs/HD-DVDs
  464. Duration                                 : 2 h 26 min
  465. Bit rate                                 : 25.7 kb/s
  466. Frame rate                               : 0.317 FPS
  467. Count of elements                        : 2790
  468. Stream size                              : 27.0 MiB (0%)
  469. Language                                 : Spanish
  470. Default                                  : No
  471. Forced                                   : No
  472. Original source medium                   : Blu-ray
  473. Text #11
  474. ID                                       : 25
  475. ID in the original source medium         : 4772 (0x12A4)
  476. Format                                   : PGS
  477. Muxing mode                              : zlib
  478. Codec ID                                 : S_HDMV/PGS
  479. Codec ID/Info                            : Picture based subtitle format used on BDs/HD-DVDs
  480. Duration                                 : 2 h 1 min
  481. Bit rate                                 : 452 b/s
  482. Frame rate                               : 0.009 FPS
  483. Count of elements                        : 67
  484. Stream size                              : 403 KiB (0%)
  485. Language                                 : Spanish
  486. Default                                  : No
  487. Forced                                   : No
  488. Original source medium                   : Blu-ray
  489. Text #12
  490. ID                                       : 26
  491. ID in the original source medium         : 4773 (0x12A5)
  492. Format                                   : PGS
  493. Muxing mode                              : zlib
  494. Codec ID                                 : S_HDMV/PGS
  495. Codec ID/Info                            : Picture based subtitle format used on BDs/HD-DVDs
  496. Duration                                 : 2 h 26 min
  497. Bit rate                                 : 21.9 kb/s
  498. Frame rate                               : 0.329 FPS
  499. Count of elements                        : 2895
  500. Stream size                              : 23.0 MiB (0%)
  501. Language                                 : French
  502. Default                                  : No
  503. Forced                                   : No
  504. Original source medium                   : Blu-ray
  505. Text #13
  506. ID                                       : 27
  507. ID in the original source medium         : 4773 (0x12A5)
  508. Format                                   : PGS
  509. Muxing mode                              : zlib
  510. Codec ID                                 : S_HDMV/PGS
  511. Codec ID/Info                            : Picture based subtitle format used on BDs/HD-DVDs
  512. Duration                                 : 2 h 3 min
  513. Bit rate                                 : 239 b/s
  514. Frame rate                               : 0.004 FPS
  515. Count of elements                        : 30
  516. Stream size                              : 215 KiB (0%)
  517. Language                                 : French
  518. Default                                  : No
  519. Forced                                   : No
  520. Original source medium                   : Blu-ray
  521. Text #14
  522. ID                                       : 28
  523. ID in the original source medium         : 4774 (0x12A6)
  524. Format                                   : PGS
  525. Muxing mode                              : zlib
  526. Codec ID                                 : S_HDMV/PGS
  527. Codec ID/Info                            : Picture based subtitle format used on BDs/HD-DVDs
  528. Duration                                 : 2 h 26 min
  529. Bit rate                                 : 27.1 kb/s
  530. Frame rate                               : 0.379 FPS
  531. Count of elements                        : 3335
  532. Stream size                              : 28.5 MiB (0%)
  533. Language                                 : French
  534. Default                                  : No
  535. Forced                                   : No
  536. Original source medium                   : Blu-ray
  537. Text #15
  538. ID                                       : 29
  539. ID in the original source medium         : 4774 (0x12A6)
  540. Format                                   : PGS
  541. Muxing mode                              : zlib
  542. Codec ID                                 : S_HDMV/PGS
  543. Codec ID/Info                            : Picture based subtitle format used on BDs/HD-DVDs
  544. Duration                                 : 2 h 1 min
  545. Bit rate                                 : 246 b/s
  546. Frame rate                               : 0.004 FPS
  547. Count of elements                        : 26
  548. Stream size                              : 220 KiB (0%)
  549. Language                                 : French
  550. Default                                  : No
  551. Forced                                   : No
  552. Original source medium                   : Blu-ray
  553. Text #16
  554. ID                                       : 30
  555. ID in the original source medium         : 4775 (0x12A7)
  556. Format                                   : PGS
  557. Muxing mode                              : zlib
  558. Codec ID                                 : S_HDMV/PGS
  559. Codec ID/Info                            : Picture based subtitle format used on BDs/HD-DVDs
  560. Duration                                 : 2 h 26 min
  561. Bit rate                                 : 23.0 kb/s
  562. Frame rate                               : 0.267 FPS
  563. Count of elements                        : 2350
  564. Stream size                              : 24.2 MiB (0%)
  565. Language                                 : Dutch
  566. Default                                  : No
  567. Forced                                   : No
  568. Original source medium                   : Blu-ray
  569. Text #17
  570. ID                                       : 31
  571. ID in the original source medium         : 4776 (0x12A8)
  572. Format                                   : PGS
  573. Muxing mode                              : zlib
  574. Codec ID                                 : S_HDMV/PGS
  575. Codec ID/Info                            : Picture based subtitle format used on BDs/HD-DVDs
  576. Duration                                 : 2 h 26 min
  577. Bit rate                                 : 23.5 kb/s
  578. Frame rate                               : 0.316 FPS
  579. Count of elements                        : 2780
  580. Stream size                              : 24.6 MiB (0%)
  581. Language                                 : Norwegian
  582. Default                                  : No
  583. Forced                                   : No
  584. Original source medium                   : Blu-ray
  585. Text #18
  586. ID                                       : 32
  587. ID in the original source medium         : 4777 (0x12A9)
  588. Format                                   : PGS
  589. Muxing mode                              : zlib
  590. Codec ID                                 : S_HDMV/PGS
  591. Codec ID/Info                            : Picture based subtitle format used on BDs/HD-DVDs
  592. Duration                                 : 2 h 26 min
  593. Bit rate                                 : 21.5 kb/s
  594. Frame rate                               : 0.313 FPS
  595. Count of elements                        : 2752
  596. Stream size                              : 22.6 MiB (0%)
  597. Language                                 : Portuguese
  598. Default                                  : No
  599. Forced                                   : No
  600. Original source medium                   : Blu-ray
  601. Text #19
  602. ID                                       : 33
  603. ID in the original source medium         : 4777 (0x12A9)
  604. Format                                   : PGS
  605. Muxing mode                              : zlib
  606. Codec ID                                 : S_HDMV/PGS
  607. Codec ID/Info                            : Picture based subtitle format used on BDs/HD-DVDs
  608. Duration                                 : 2 h 2 min
  609. Bit rate                                 : 389 b/s
  610. Frame rate                               : 0.009 FPS
  611. Count of elements                        : 70
  612. Stream size                              : 350 KiB (0%)
  613. Language                                 : Portuguese
  614. Default                                  : No
  615. Forced                                   : No
  616. Original source medium                   : Blu-ray
  617. Text #20
  618. ID                                       : 34
  619. ID in the original source medium         : 4778 (0x12AA)
  620. Format                                   : PGS
  621. Muxing mode                              : zlib
  622. Codec ID                                 : S_HDMV/PGS
  623. Codec ID/Info                            : Picture based subtitle format used on BDs/HD-DVDs
  624. Duration                                 : 2 h 26 min
  625. Bit rate                                 : 24.7 kb/s
  626. Frame rate                               : 0.358 FPS
  627. Count of elements                        : 3148
  628. Stream size                              : 25.9 MiB (0%)
  629. Language                                 : Finnish
  630. Default                                  : No
  631. Forced                                   : No
  632. Original source medium                   : Blu-ray
  633. Text #21
  634. ID                                       : 35
  635. ID in the original source medium         : 4779 (0x12AB)
  636. Format                                   : PGS
  637. Muxing mode                              : zlib
  638. Codec ID                                 : S_HDMV/PGS
  639. Codec ID/Info                            : Picture based subtitle format used on BDs/HD-DVDs
  640. Duration                                 : 2 h 26 min
  641. Bit rate                                 : 23.6 kb/s
  642. Frame rate                               : 0.313 FPS
  643. Count of elements                        : 2759
  644. Stream size                              : 24.7 MiB (0%)
  645. Language                                 : Swedish
  646. Default                                  : No
  647. Forced                                   : No
  648. Original source medium                   : Blu-ray
  649. Text #22
  650. ID                                       : 36
  651. ID in the original source medium         : 4780 (0x12AC)
  652. Format                                   : PGS
  653. Muxing mode                              : zlib
  654. Codec ID                                 : S_HDMV/PGS
  655. Codec ID/Info                            : Picture based subtitle format used on BDs/HD-DVDs
  656. Duration                                 : 2 h 27 min
  657. Bit rate                                 : 78.9 kb/s
  658. Frame rate                               : 0.787 FPS
  659. Count of elements                        : 6950
  660. Stream size                              : 83.1 MiB (0%)
  661. Language                                 : English
  662. Default                                  : No
  663. Forced                                   : No
  664. Original source medium                   : Blu-ray
  665. Text #23
  666. ID                                       : 37
  667. ID in the original source medium         : 4781 (0x12AD)
  668. Format                                   : PGS
  669. Muxing mode                              : zlib
  670. Codec ID                                 : S_HDMV/PGS
  671. Codec ID/Info                            : Picture based subtitle format used on BDs/HD-DVDs
  672. Duration                                 : 2 h 27 min
  673. Bit rate                                 : 71.8 kb/s
  674. Frame rate                               : 0.786 FPS
  675. Count of elements                        : 6952
  676. Stream size                              : 75.7 MiB (0%)
  677. Language                                 : Spanish
  678. Default                                  : No
  679. Forced                                   : No
  680. Original source medium                   : Blu-ray
  681. Text #24
  682. ID                                       : 38
  683. ID in the original source medium         : 4782 (0x12AE)
  684. Format                                   : PGS
  685. Muxing mode                              : zlib
  686. Codec ID                                 : S_HDMV/PGS
  687. Codec ID/Info                            : Picture based subtitle format used on BDs/HD-DVDs
  688. Duration                                 : 2 h 27 min
  689. Bit rate                                 : 71.9 kb/s
  690. Frame rate                               : 0.786 FPS
  691. Count of elements                        : 6952
  692. Stream size                              : 75.8 MiB (0%)
  693. Language                                 : Spanish
  694. Default                                  : No
  695. Forced                                   : No
  696. Original source medium                   : Blu-ray
  697. Text #25
  698. ID                                       : 39
  699. ID in the original source medium         : 4783 (0x12AF)
  700. Format                                   : PGS
  701. Muxing mode                              : zlib
  702. Codec ID                                 : S_HDMV/PGS
  703. Codec ID/Info                            : Picture based subtitle format used on BDs/HD-DVDs
  704. Duration                                 : 2 h 27 min
  705. Bit rate                                 : 70.8 kb/s
  706. Frame rate                               : 0.773 FPS
  707. Count of elements                        : 6832
  708. Stream size                              : 74.6 MiB (0%)
  709. Language                                 : French
  710. Default                                  : No
  711. Forced                                   : No
  712. Original source medium                   : Blu-ray
  713. Text #26
  714. ID                                       : 40
  715. ID in the original source medium         : 4784 (0x12B0)
  716. Format                                   : PGS
  717. Muxing mode                              : zlib
  718. Codec ID                                 : S_HDMV/PGS
  719. Codec ID/Info                            : Picture based subtitle format used on BDs/HD-DVDs
  720. Duration                                 : 2 h 27 min
  721. Bit rate                                 : 69.9 kb/s
  722. Frame rate                               : 0.786 FPS
  723. Count of elements                        : 6952
  724. Stream size                              : 73.6 MiB (0%)
  725. Language                                 : French
  726. Default                                  : No
  727. Forced                                   : No
  728. Original source medium                   : Blu-ray
  729. Text #27
  730. ID                                       : 41
  731. ID in the original source medium         : 4785 (0x12B1)
  732. Format                                   : PGS
  733. Muxing mode                              : zlib
  734. Codec ID                                 : S_HDMV/PGS
  735. Codec ID/Info                            : Picture based subtitle format used on BDs/HD-DVDs
  736. Duration                                 : 2 h 27 min
  737. Bit rate                                 : 72.1 kb/s
  738. Frame rate                               : 0.786 FPS
  739. Count of elements                        : 6952
  740. Stream size                              : 75.9 MiB (0%)
  741. Language                                 : Portuguese
  742. Default                                  : No
  743. Forced                                   : No
  744. Original source medium                   : Blu-ray
  745. Text #28
  746. ID                                       : 42
  747. ID in the original source medium         : 4786 (0x12B2)
  748. Format                                   : PGS
  749. Muxing mode                              : zlib
  750. Codec ID                                 : S_HDMV/PGS
  751. Codec ID/Info                            : Picture based subtitle format used on BDs/HD-DVDs
  752. Duration                                 : 2 h 25 min
  753. Bit rate                                 : 80.2 kb/s
  754. Frame rate                               : 0.749 FPS
  755. Count of elements                        : 6544
  756. Stream size                              : 83.6 MiB (0%)
  757. Language                                 : English
  758. Default                                  : No
  759. Forced                                   : No
  760. Original source medium                   : Blu-ray
  761. Text #29
  762. ID                                       : 43
  763. ID in the original source medium         : 4787 (0x12B3)
  764. Format                                   : PGS
  765. Muxing mode                              : zlib
  766. Codec ID                                 : S_HDMV/PGS
  767. Codec ID/Info                            : Picture based subtitle format used on BDs/HD-DVDs
  768. Duration                                 : 2 h 27 min
  769. Bit rate                                 : 71.0 kb/s
  770. Frame rate                               : 0.740 FPS
  771. Count of elements                        : 6546
  772. Stream size                              : 74.8 MiB (0%)
  773. Language                                 : Spanish
  774. Default                                  : No
  775. Forced                                   : No
  776. Original source medium                   : Blu-ray
  777. Text #30
  778. ID                                       : 44
  779. ID in the original source medium         : 4788 (0x12B4)
  780. Format                                   : PGS
  781. Muxing mode                              : zlib
  782. Codec ID                                 : S_HDMV/PGS
  783. Codec ID/Info                            : Picture based subtitle format used on BDs/HD-DVDs
  784. Duration                                 : 2 h 27 min
  785. Bit rate                                 : 71.2 kb/s
  786. Frame rate                               : 0.740 FPS
  787. Count of elements                        : 6546
  788. Stream size                              : 75.0 MiB (0%)
  789. Language                                 : Spanish
  790. Default                                  : No
  791. Forced                                   : No
  792. Original source medium                   : Blu-ray
  793. Text #31
  794. ID                                       : 45
  795. ID in the original source medium         : 4789 (0x12B5)
  796. Format                                   : PGS
  797. Muxing mode                              : zlib
  798. Codec ID                                 : S_HDMV/PGS
  799. Codec ID/Info                            : Picture based subtitle format used on BDs/HD-DVDs
  800. Duration                                 : 2 h 27 min
  801. Bit rate                                 : 70.2 kb/s
  802. Frame rate                               : 0.740 FPS
  803. Count of elements                        : 6546
  804. Stream size                              : 74.0 MiB (0%)
  805. Language                                 : French
  806. Default                                  : No
  807. Forced                                   : No
  808. Original source medium                   : Blu-ray
  809. Text #32
  810. ID                                       : 46
  811. ID in the original source medium         : 4790 (0x12B6)
  812. Format                                   : PGS
  813. Muxing mode                              : zlib
  814. Codec ID                                 : S_HDMV/PGS
  815. Codec ID/Info                            : Picture based subtitle format used on BDs/HD-DVDs
  816. Duration                                 : 2 h 27 min
  817. Bit rate                                 : 74.2 kb/s
  818. Frame rate                               : 0.740 FPS
  819. Count of elements                        : 6546
  820. Stream size                              : 78.2 MiB (0%)
  821. Language                                 : French
  822. Default                                  : No
  823. Forced                                   : No
  824. Original source medium                   : Blu-ray
  825. Text #33
  826. ID                                       : 47
  827. ID in the original source medium         : 4791 (0x12B7)
  828. Format                                   : PGS
  829. Muxing mode                              : zlib
  830. Codec ID                                 : S_HDMV/PGS
  831. Codec ID/Info                            : Picture based subtitle format used on BDs/HD-DVDs
  832. Duration                                 : 2 h 27 min
  833. Bit rate                                 : 75.1 kb/s
  834. Frame rate                               : 0.740 FPS
  835. Count of elements                        : 6546
  836. Stream size                              : 79.2 MiB (0%)
  837. Language                                 : Portuguese
  838. Default                                  : No
  839. Forced                                   : No
  840. Original source medium                   : Blu-ray
  841. Text #34
  842. ID                                       : 48
  843. ID in the original source medium         : 4792 (0x12B8)
  844. Format                                   : PGS
  845. Muxing mode                              : zlib
  846. Codec ID                                 : S_HDMV/PGS
  847. Codec ID/Info                            : Picture based subtitle format used on BDs/HD-DVDs
  848. Duration                                 : 2 h 21 min
  849. Bit rate                                 : 39.9 kb/s
  850. Frame rate                               : 0.432 FPS
  851. Count of elements                        : 3662
  852. Stream size                              : 40.3 MiB (0%)
  853. Language                                 : English
  854. Default                                  : No
  855. Forced                                   : No
  856. Original source medium                   : Blu-ray
  857. Text #35
  858. ID                                       : 49
  859. ID in the original source medium         : 4793 (0x12B9)
  860. Format                                   : PGS
  861. Muxing mode                              : zlib
  862. Codec ID                                 : S_HDMV/PGS
  863. Codec ID/Info                            : Picture based subtitle format used on BDs/HD-DVDs
  864. Duration                                 : 2 h 27 min
  865. Bit rate                                 : 36.5 kb/s
  866. Frame rate                               : 0.415 FPS
  867. Count of elements                        : 3664
  868. Stream size                              : 38.5 MiB (0%)
  869. Language                                 : Spanish
  870. Default                                  : No
  871. Forced                                   : No
  872. Original source medium                   : Blu-ray
  873. Text #36
  874. ID                                       : 50
  875. ID in the original source medium         : 4794 (0x12BA)
  876. Format                                   : PGS
  877. Muxing mode                              : zlib
  878. Codec ID                                 : S_HDMV/PGS
  879. Codec ID/Info                            : Picture based subtitle format used on BDs/HD-DVDs
  880. Duration                                 : 2 h 27 min
  881. Bit rate                                 : 39.1 kb/s
  882. Frame rate                               : 0.415 FPS
  883. Count of elements                        : 3664
  884. Stream size                              : 41.2 MiB (0%)
  885. Language                                 : Spanish
  886. Default                                  : No
  887. Forced                                   : No
  888. Original source medium                   : Blu-ray
  889. Text #37
  890. ID                                       : 51
  891. ID in the original source medium         : 4795 (0x12BB)
  892. Format                                   : PGS
  893. Muxing mode                              : zlib
  894. Codec ID                                 : S_HDMV/PGS
  895. Codec ID/Info                            : Picture based subtitle format used on BDs/HD-DVDs
  896. Duration                                 : 2 h 27 min
  897. Bit rate                                 : 39.6 kb/s
  898. Frame rate                               : 0.414 FPS
  899. Count of elements                        : 3658
  900. Stream size                              : 41.7 MiB (0%)
  901. Language                                 : French
  902. Default                                  : No
  903. Forced                                   : No
  904. Original source medium                   : Blu-ray
  905. Text #38
  906. ID                                       : 52
  907. ID in the original source medium         : 4796 (0x12BC)
  908. Format                                   : PGS
  909. Muxing mode                              : zlib
  910. Codec ID                                 : S_HDMV/PGS
  911. Codec ID/Info                            : Picture based subtitle format used on BDs/HD-DVDs
  912. Duration                                 : 2 h 27 min
  913. Bit rate                                 : 39.6 kb/s
  914. Frame rate                               : 0.415 FPS
  915. Count of elements                        : 3664
  916. Stream size                              : 41.7 MiB (0%)
  917. Language                                 : French
  918. Default                                  : No
  919. Forced                                   : No
  920. Original source medium                   : Blu-ray
  921. Text #39
  922. ID                                       : 53
  923. ID in the original source medium         : 4797 (0x12BD)
  924. Format                                   : PGS
  925. Muxing mode                              : zlib
  926. Codec ID                                 : S_HDMV/PGS
  927. Codec ID/Info                            : Picture based subtitle format used on BDs/HD-DVDs
  928. Duration                                 : 2 h 27 min
  929. Bit rate                                 : 38.0 kb/s
  930. Frame rate                               : 0.415 FPS
  931. Count of elements                        : 3664
  932. Stream size                              : 40.1 MiB (0%)
  933. Language                                 : Portuguese
  934. Default                                  : No
  935. Forced                                   : No
  936. Original source medium                   : Blu-ray
  937. Menu
  938. 00:00:00.000                             : en:Chapter 01
  939. 00:10:37.011                             : en:Chapter 02
  940. 00:17:11.155                             : en:Chapter 03
  941. 00:26:57.240                             : en:Chapter 04
  942. 00:35:56.654                             : en:Chapter 05
  943. 00:49:18.413                             : en:Chapter 06
  944. 01:00:00.805                             : en:Chapter 07
  945. 01:10:23.469                             : en:Chapter 08
  946. 01:17:07.039                             : en:Chapter 09
  947. 01:28:28.469                             : en:Chapter 10
  948. 01:39:09.443                             : en:Chapter 11
  949. 01:46:26.546                             : en:Chapter 12
  950. 01:55:45.563                             : en:Chapter 13
  951. 02:03:10.591                             : en:Chapter 14
  952. 02:14:00.907                             : en:Chapter 15
  953. 02:19:48.046                             : en:Chapter 16
复制代码

055802ppwp1ildv0nv0wzw.jpg

055806m6xxqmggoctph60x.jpg

055810nezhdxdwzz7edlj7.jpg



Hao8k.cn提示您 点击下方附件名称 即可开始下载

碟中谍6:全面瓦解.Mission.Impossible.Fallout.2018.PROPER.IMAX.2160p.BluRay.REMUX.HEVC.DTS-HD.MA.TrueHD.7.1.Atmos-FGT 86.44GB

Mission.Impossible.Fallout.2018.PROPER.IMAX.2160p.BluRay.REMUX.HEVC.DTS-HD.MA.TrueHD.7.1.Atmos-FGT.torrent ( 108.76 KB )

回复

使用道具 举报

全部回复4 显示全部楼层
zhengshunwen 发表于 2023-1-20 09:51:31 | 显示全部楼层
下载试试看
回复

使用道具 举报

yy_75 发表于 2023-1-21 15:08:16 | 显示全部楼层
xie xie lou zhu
回复

使用道具 举报

yy_75 发表于 2023-1-21 15:27:50 | 显示全部楼层
77777777777
回复

使用道具 举报

信立天中 发表于 4 天前 | 显示全部楼层
谢谢分享
回复

使用道具 举报

声明:您在社区发表的所有信息仅代表用户个人观点,与本网站立场无关,希望各位烧友理性发言,不发表违法国家法律禁止的话题。

您需要登录后才可以回帖 登录 | 立即注册

本版积分规则

开通会员 每日签到 返回顶部 返回列表