开启左侧

网络炼狱:揭发N号房[中文字幕].Cyber.Hell.Exposing.an.Internet.Horror.2022.KOREAN.2160p.NF.WEB-DL.DDP5.1.DV.MP4.x265-DVSUX 9.12GB

Hao8k资源组 发表于 2023-1-19 23:27:48 | 显示全部楼层 |阅读模式
画质标准:
WEB-DL 2160p 杜比视界 
音质编码:
其它DDP 
电影声道:
5.1声道


电影封面

马上注册 Hao8k.cn ,获得更好的体验,让你轻松玩转Hao8k

您需要 登录 才可以下载或查看,没有帐号?立即注册

x
195719ec99puyoisasqwwe.jpg


标  题 网络炼狱:揭发N号房
译  名 网路炼狱:揭发N号房(台) / 网络地狱:N号房现形记 / Cyber Hell: Exposing an Internet Horror
片  名 사이버 지옥: n번방을 무너뜨려라
年  代 2022
产  地 韩国
类  别 纪录片
语  言 韩语
上映日期 2022-05-18(韩国网络)
IMDb链接 https://www.imdb.com/title/tt19768508/
豆瓣链接 https://movie.douban.com/subject/35874097/
片  长 105分钟
导  演 崔镇成 Jin-seong Choe
简  介

在这部长篇纪录片中,导演崔镇成讲述了两名女大学生、一群记者和网络犯罪警察追捕“N 号房”(性剥削在线犯罪网络)的故事。这部电影取材于采访、档案、动画和情景重现,揭示了妇女和女孩如何被迫将自己的露骨材料上传到 Telegram 聊天室,这些聊天室的头目会用加密货币向成千上万的用户收取费用。这是一个关于该地区最具破坏性的数字犯罪的故事,数字匿名的时代让其蓬勃发展,同时受害者开始发声,誓要将其摧毁。

影片参数
  1. Video
  2. ID                                       : 1
  3. Format                                   : HEVC
  4. Format/Info                              : High Efficiency Video Coding
  5. Format profile                           : Main [email protected]@Main
  6. HDR format                               : Dolby Vision, Version 1.0, dvhe.05.06, BL+RPU
  7. Codec ID                                 : dvhe
  8. Codec ID/Info                            : High Efficiency Video Coding with Dolby Vision
  9. Duration                                 : 1 h 45 min
  10. Bit rate                                 : 11.7 Mb/s
  11. Width                                    : 3 840 pixels
  12. Height                                   : 2 160 pixels
  13. Display aspect ratio                     : 16:9
  14. Frame rate mode                          : Constant
  15. Frame rate                               : 23.976 (24000/1001) FPS
  16. Color space                              : YUV
  17. Chroma subsampling                       : 4:2:0
  18. Bit depth                                : 10 bits
  19. Bits/(Pixel*Frame)                       : 0.059
  20. Stream size                              : 8.64 GiB (95%)
  21. Default                                  : Yes
  22. Alternate group                          : 1
  23. Encoded date                             : UTC 2023-01-16 10:57:11
  24. Tagged date                              : UTC 2023-01-16 10:58:34
  25. Color range                              : Full
  26. Codec configuration box                  : hvcC+dvcC
  27. Audio
  28. ID                                       : 2
  29. Format                                   : E-AC-3
  30. Format/Info                              : Enhanced AC-3
  31. Commercial name                          : Dolby Digital Plus
  32. Codec ID                                 : ec-3
  33. Duration                                 : 1 h 45 min
  34. Bit rate mode                            : Constant
  35. Bit rate                                 : 640 kb/s
  36. Maximum bit rate                         : 676 kb/s
  37. Channel(s)                               : 6 channels
  38. Channel layout                           : L R C LFE Ls Rs
  39. Sampling rate                            : 48.0 kHz
  40. Frame rate                               : 31.250 FPS (1536 SPF)
  41. Compression mode                         : Lossy
  42. Stream size                              : 483 MiB (5%)
  43. Title                                    : English
  44. Language                                 : English
  45. Service kind                             : Complete Main
  46. Default                                  : Yes
  47. Alternate group                          : 1
  48. Tagged date                              : UTC 2023-01-16 10:58:34
  49. Text #1
  50. ID                                       : 3
  51. Format                                   : Timed Text
  52. Codec ID                                 : tx3g
  53. Duration                                 : 1 h 43 min
  54. Bit rate mode                            : Variable
  55. Bit rate                                 : 98 b/s
  56. Frame rate                               : 0.513 FPS
  57. Stream size                              : 73.9 KiB (0%)
  58. Title                                    : English
  59. Language                                 : English
  60. Forced                                   : No
  61. Encoded date                             : UTC 2023-01-16 10:58:31
  62. Tagged date                              : UTC 2023-01-16 10:58:34
  63. Text #2
  64. ID                                       : 4
  65. Format                                   : Timed Text
  66. Codec ID                                 : tx3g
  67. Duration                                 : 1 h 43 min
  68. Bit rate mode                            : Variable
  69. Bit rate                                 : 29 b/s
  70. Frame rate                               : 0.184 FPS
  71. Stream size                              : 22.3 KiB (0%)
  72. Title                                    : English
  73. Language                                 : English
  74. Forced                                   : No
  75. Encoded date                             : UTC 2023-01-16 10:58:31
  76. Tagged date                              : UTC 2023-01-16 10:58:34
  77. Text #3
  78. ID                                       : 5
  79. Format                                   : Timed Text
  80. Codec ID                                 : tx3g
  81. Duration                                 : 1 h 43 min
  82. Bit rate mode                            : Variable
  83. Bit rate                                 : 96 b/s
  84. Frame rate                               : 0.509 FPS
  85. Stream size                              : 72.3 KiB (0%)
  86. Title                                    : English
  87. Language                                 : English
  88. Forced                                   : No
  89. Encoded date                             : UTC 2023-01-16 10:58:31
  90. Tagged date                              : UTC 2023-01-16 10:58:34
  91. Text #4
  92. ID                                       : 6
  93. Format                                   : Timed Text
  94. Codec ID                                 : tx3g
  95. Duration                                 : 1 h 43 min
  96. Bit rate mode                            : Variable
  97. Bit rate                                 : 94 b/s
  98. Frame rate                               : 0.489 FPS
  99. Stream size                              : 71.5 KiB (0%)
  100. Title                                    : English
  101. Language                                 : English
  102. Forced                                   : No
  103. Encoded date                             : UTC 2023-01-16 10:58:31
  104. Tagged date                              : UTC 2023-01-16 10:58:34
  105. Text #5
  106. ID                                       : 7
  107. Format                                   : Timed Text
  108. Codec ID                                 : tx3g
  109. Duration                                 : 1 h 43 min
  110. Bit rate mode                            : Variable
  111. Bit rate                                 : 151 b/s
  112. Frame rate                               : 0.508 FPS
  113. Stream size                              : 115 KiB (0%)
  114. Title                                    : Arabic
  115. Language                                 : Arabic
  116. Forced                                   : No
  117. Encoded date                             : UTC 2023-01-16 10:58:31
  118. Tagged date                              : UTC 2023-01-16 10:58:34
  119. Text #6
  120. ID                                       : 8
  121. Format                                   : Timed Text
  122. Codec ID                                 : tx3g
  123. Duration                                 : 1 h 43 min
  124. Bit rate mode                            : Variable
  125. Bit rate                                 : 97 b/s
  126. Frame rate                               : 0.510 FPS
  127. Stream size                              : 73.9 KiB (0%)
  128. Title                                    : Chinese-Simplified
  129. Language                                 : Chinese (Simplied)
  130. Forced                                   : No
  131. Encoded date                             : UTC 2023-01-16 10:58:31
  132. Tagged date                              : UTC 2023-01-16 10:58:34
  133. Text #7
  134. ID                                       : 9
  135. Format                                   : Timed Text
  136. Codec ID                                 : tx3g
  137. Duration                                 : 1 h 43 min
  138. Bit rate mode                            : Variable
  139. Bit rate                                 : 98 b/s
  140. Frame rate                               : 0.510 FPS
  141. Stream size                              : 74.4 KiB (0%)
  142. Title                                    : Chinese-Traditional
  143. Language                                 : Chinese (Traditional)
  144. Forced                                   : No
  145. Encoded date                             : UTC 2023-01-16 10:58:32
  146. Tagged date                              : UTC 2023-01-16 10:58:34
  147. Text #8
  148. ID                                       : 10
  149. Format                                   : Timed Text
  150. Codec ID                                 : tx3g
  151. Duration                                 : 1 h 43 min
  152. Bit rate mode                            : Variable
  153. Bit rate                                 : 85 b/s
  154. Frame rate                               : 0.499 FPS
  155. Stream size                              : 64.7 KiB (0%)
  156. Title                                    : Croatian
  157. Language                                 : Croatian
  158. Forced                                   : No
  159. Encoded date                             : UTC 2023-01-16 10:58:32
  160. Tagged date                              : UTC 2023-01-16 10:58:34
  161. Text #9
  162. ID                                       : 11
  163. Format                                   : Timed Text
  164. Codec ID                                 : tx3g
  165. Duration                                 : 1 h 43 min
  166. Bit rate mode                            : Variable
  167. Bit rate                                 : 31 b/s
  168. Frame rate                               : 0.202 FPS
  169. Stream size                              : 23.3 KiB (0%)
  170. Title                                    : Czech
  171. Language                                 : Czech
  172. Forced                                   : No
  173. Encoded date                             : UTC 2023-01-16 10:58:32
  174. Tagged date                              : UTC 2023-01-16 10:58:34
  175. Text #10
  176. ID                                       : 12
  177. Format                                   : Timed Text
  178. Codec ID                                 : tx3g
  179. Duration                                 : 1 h 43 min
  180. Bit rate mode                            : Variable
  181. Bit rate                                 : 89 b/s
  182. Frame rate                               : 0.503 FPS
  183. Stream size                              : 67.6 KiB (0%)
  184. Title                                    : Czech
  185. Language                                 : Czech
  186. Forced                                   : No
  187. Encoded date                             : UTC 2023-01-16 10:58:32
  188. Tagged date                              : UTC 2023-01-16 10:58:34
  189. Text #11
  190. ID                                       : 13
  191. Format                                   : Timed Text
  192. Codec ID                                 : tx3g
  193. Duration                                 : 1 h 43 min
  194. Bit rate mode                            : Variable
  195. Bit rate                                 : 89 b/s
  196. Frame rate                               : 0.501 FPS
  197. Stream size                              : 67.8 KiB (0%)
  198. Title                                    : Danish
  199. Language                                 : Danish
  200. Forced                                   : No
  201. Encoded date                             : UTC 2023-01-16 10:58:32
  202. Tagged date                              : UTC 2023-01-16 10:58:34
  203. Text #12
  204. ID                                       : 14
  205. Format                                   : Timed Text
  206. Codec ID                                 : tx3g
  207. Duration                                 : 1 h 43 min
  208. Bit rate mode                            : Variable
  209. Bit rate                                 : 89 b/s
  210. Frame rate                               : 0.478 FPS
  211. Stream size                              : 67.5 KiB (0%)
  212. Title                                    : Dutch
  213. Language                                 : Dutch
  214. Forced                                   : No
  215. Encoded date                             : UTC 2023-01-16 10:58:32
  216. Tagged date                              : UTC 2023-01-16 10:58:34
  217. Text #13
  218. ID                                       : 15
  219. Format                                   : Timed Text
  220. Codec ID                                 : tx3g
  221. Duration                                 : 1 h 43 min
  222. Bit rate mode                            : Variable
  223. Bit rate                                 : 90 b/s
  224. Frame rate                               : 0.498 FPS
  225. Stream size                              : 68.7 KiB (0%)
  226. Title                                    : Finnish
  227. Language                                 : Finnish
  228. Forced                                   : No
  229. Encoded date                             : UTC 2023-01-16 10:58:32
  230. Tagged date                              : UTC 2023-01-16 10:58:34
  231. Text #14
  232. ID                                       : 16
  233. Format                                   : Timed Text
  234. Codec ID                                 : tx3g
  235. Duration                                 : 1 h 43 min
  236. Bit rate mode                            : Variable
  237. Bit rate                                 : 30 b/s
  238. Frame rate                               : 0.203 FPS
  239. Stream size                              : 22.9 KiB (0%)
  240. Title                                    : French
  241. Language                                 : French
  242. Forced                                   : No
  243. Encoded date                             : UTC 2023-01-16 10:58:32
  244. Tagged date                              : UTC 2023-01-16 10:58:34
  245. Text #15
  246. ID                                       : 17
  247. Format                                   : Timed Text
  248. Codec ID                                 : tx3g
  249. Duration                                 : 1 h 43 min
  250. Bit rate mode                            : Variable
  251. Bit rate                                 : 90 b/s
  252. Frame rate                               : 0.502 FPS
  253. Stream size                              : 68.4 KiB (0%)
  254. Title                                    : French
  255. Language                                 : French
  256. Forced                                   : No
  257. Encoded date                             : UTC 2023-01-16 10:58:32
  258. Tagged date                              : UTC 2023-01-16 10:58:34
  259. Text #16
  260. ID                                       : 18
  261. Format                                   : Timed Text
  262. Codec ID                                 : tx3g
  263. Duration                                 : 1 h 43 min
  264. Bit rate mode                            : Variable
  265. Bit rate                                 : 31 b/s
  266. Frame rate                               : 0.202 FPS
  267. Stream size                              : 23.5 KiB (0%)
  268. Title                                    : German
  269. Language                                 : German
  270. Forced                                   : No
  271. Encoded date                             : UTC 2023-01-16 10:58:32
  272. Tagged date                              : UTC 2023-01-16 10:58:34
  273. Text #17
  274. ID                                       : 19
  275. Format                                   : Timed Text
  276. Codec ID                                 : tx3g
  277. Duration                                 : 1 h 43 min
  278. Bit rate mode                            : Variable
  279. Bit rate                                 : 92 b/s
  280. Frame rate                               : 0.507 FPS
  281. Stream size                              : 69.9 KiB (0%)
  282. Title                                    : German
  283. Language                                 : German
  284. Forced                                   : No
  285. Encoded date                             : UTC 2023-01-16 10:58:32
  286. Tagged date                              : UTC 2023-01-16 10:58:34
  287. Text #18
  288. ID                                       : 20
  289. Format                                   : Timed Text
  290. Codec ID                                 : tx3g
  291. Duration                                 : 1 h 43 min
  292. Bit rate mode                            : Variable
  293. Bit rate                                 : 143 b/s
  294. Frame rate                               : 0.505 FPS
  295. Stream size                              : 109 KiB (0%)
  296. Title                                    : Greek
  297. Language                                 : Greek
  298. Forced                                   : No
  299. Encoded date                             : UTC 2023-01-16 10:58:32
  300. Tagged date                              : UTC 2023-01-16 10:58:34
  301. Text #19
  302. ID                                       : 21
  303. Format                                   : Timed Text
  304. Codec ID                                 : tx3g
  305. Duration                                 : 1 h 43 min
  306. Bit rate mode                            : Variable
  307. Bit rate                                 : 134 b/s
  308. Frame rate                               : 0.507 FPS
  309. Stream size                              : 102 KiB (0%)
  310. Title                                    : Hebrew
  311. Language                                 : Hebrew
  312. Forced                                   : No
  313. Encoded date                             : UTC 2023-01-16 10:58:32
  314. Tagged date                              : UTC 2023-01-16 10:58:34
  315. Text #20
  316. ID                                       : 22
  317. Format                                   : Timed Text
  318. Codec ID                                 : tx3g
  319. Duration                                 : 1 h 43 min
  320. Bit rate mode                            : Variable
  321. Bit rate                                 : 40 b/s
  322. Frame rate                               : 0.204 FPS
  323. Stream size                              : 30.3 KiB (0%)
  324. Title                                    : Hindi
  325. Language                                 : Hindi
  326. Forced                                   : No
  327. Encoded date                             : UTC 2023-01-16 10:58:32
  328. Tagged date                              : UTC 2023-01-16 10:58:34
  329. Text #21
  330. ID                                       : 23
  331. Format                                   : Timed Text
  332. Codec ID                                 : tx3g
  333. Duration                                 : 1 h 43 min
  334. Bit rate mode                            : Variable
  335. Bit rate                                 : 96 b/s
  336. Frame rate                               : 0.504 FPS
  337. Stream size                              : 73.0 KiB (0%)
  338. Title                                    : Hungarian
  339. Language                                 : Hungarian
  340. Forced                                   : No
  341. Encoded date                             : UTC 2023-01-16 10:58:32
  342. Tagged date                              : UTC 2023-01-16 10:58:34
  343. Text #22
  344. ID                                       : 24
  345. Format                                   : Timed Text
  346. Codec ID                                 : tx3g
  347. Duration                                 : 1 h 43 min
  348. Bit rate mode                            : Variable
  349. Bit rate                                 : 33 b/s
  350. Frame rate                               : 0.205 FPS
  351. Stream size                              : 24.9 KiB (0%)
  352. Title                                    : Hungarian
  353. Language                                 : Hungarian
  354. Forced                                   : No
  355. Encoded date                             : UTC 2023-01-16 10:58:33
  356. Tagged date                              : UTC 2023-01-16 10:58:34
  357. Text #23
  358. ID                                       : 25
  359. Format                                   : Timed Text
  360. Codec ID                                 : tx3g
  361. Duration                                 : 1 h 43 min
  362. Bit rate mode                            : Variable
  363. Bit rate                                 : 34 b/s
  364. Frame rate                               : 0.220 FPS
  365. Stream size                              : 25.6 KiB (0%)
  366. Title                                    : Indonesian
  367. Language                                 : Indonesian
  368. Forced                                   : No
  369. Encoded date                             : UTC 2023-01-16 10:58:33
  370. Tagged date                              : UTC 2023-01-16 10:58:34
  371. Text #24
  372. ID                                       : 26
  373. Format                                   : Timed Text
  374. Codec ID                                 : tx3g
  375. Duration                                 : 1 h 43 min
  376. Bit rate mode                            : Variable
  377. Bit rate                                 : 93 b/s
  378. Frame rate                               : 0.501 FPS
  379. Stream size                              : 70.7 KiB (0%)
  380. Title                                    : Indonesian
  381. Language                                 : Indonesian
  382. Forced                                   : No
  383. Encoded date                             : UTC 2023-01-16 10:58:33
  384. Tagged date                              : UTC 2023-01-16 10:58:34
  385. Text #25
  386. ID                                       : 27
  387. Format                                   : Timed Text
  388. Codec ID                                 : tx3g
  389. Duration                                 : 1 h 43 min
  390. Bit rate mode                            : Variable
  391. Bit rate                                 : 91 b/s
  392. Frame rate                               : 0.498 FPS
  393. Stream size                              : 69.5 KiB (0%)
  394. Title                                    : Italian
  395. Language                                 : Italian
  396. Forced                                   : No
  397. Encoded date                             : UTC 2023-01-16 10:58:33
  398. Tagged date                              : UTC 2023-01-16 10:58:34
  399. Text #26
  400. ID                                       : 28
  401. Format                                   : Timed Text
  402. Codec ID                                 : tx3g
  403. Duration                                 : 1 h 43 min
  404. Bit rate mode                            : Variable
  405. Bit rate                                 : 27 b/s
  406. Frame rate                               : 0.179 FPS
  407. Stream size                              : 20.7 KiB (0%)
  408. Title                                    : Italian
  409. Language                                 : Italian
  410. Forced                                   : No
  411. Encoded date                             : UTC 2023-01-16 10:58:33
  412. Tagged date                              : UTC 2023-01-16 10:58:34
  413. Text #27
  414. ID                                       : 29
  415. Format                                   : Timed Text
  416. Codec ID                                 : tx3g
  417. Duration                                 : 1 h 43 min
  418. Bit rate mode                            : Variable
  419. Bit rate                                 : 99 b/s
  420. Frame rate                               : 0.457 FPS
  421. Stream size                              : 75.7 KiB (0%)
  422. Title                                    : Japanese
  423. Language                                 : Japanese
  424. Forced                                   : No
  425. Encoded date                             : UTC 2023-01-16 10:58:33
  426. Tagged date                              : UTC 2023-01-16 10:58:34
  427. Text #28
  428. ID                                       : 30
  429. Format                                   : Timed Text
  430. Codec ID                                 : tx3g
  431. Duration                                 : 1 h 43 min
  432. Bit rate mode                            : Variable
  433. Bit rate                                 : 23 b/s
  434. Frame rate                               : 0.136 FPS
  435. Stream size                              : 17.8 KiB (0%)
  436. Title                                    : Japanese
  437. Language                                 : Japanese
  438. Forced                                   : No
  439. Encoded date                             : UTC 2023-01-16 10:58:33
  440. Tagged date                              : UTC 2023-01-16 10:58:34
  441. Text #29
  442. ID                                       : 31
  443. Format                                   : Timed Text
  444. Codec ID                                 : tx3g
  445. Duration                                 : 1 h 43 min
  446. Bit rate mode                            : Variable
  447. Bit rate                                 : 108 b/s
  448. Frame rate                               : 0.515 FPS
  449. Stream size                              : 82.3 KiB (0%)
  450. Title                                    : Korean
  451. Language                                 : Korean
  452. Forced                                   : No
  453. Encoded date                             : UTC 2023-01-16 10:58:33
  454. Tagged date                              : UTC 2023-01-16 10:58:34
  455. Text #30
  456. ID                                       : 32
  457. Format                                   : Timed Text
  458. Codec ID                                 : tx3g
  459. Duration                                 : 1 h 43 min
  460. Bit rate mode                            : Variable
  461. Bit rate                                 : 1 b/s
  462. Frame rate                               : 0.010 FPS
  463. Stream size                              : 796 Bytes (0%)
  464. Title                                    : Korean
  465. Language                                 : Korean
  466. Forced                                   : No
  467. Encoded date                             : UTC 2023-01-16 10:58:33
  468. Tagged date                              : UTC 2023-01-16 10:58:34
  469. Text #31
  470. ID                                       : 33
  471. Format                                   : Timed Text
  472. Codec ID                                 : tx3g
  473. Duration                                 : 1 h 43 min
  474. Bit rate mode                            : Variable
  475. Bit rate                                 : 93 b/s
  476. Frame rate                               : 0.500 FPS
  477. Stream size                              : 70.4 KiB (0%)
  478. Title                                    : Malay
  479. Language                                 : Malay
  480. Forced                                   : No
  481. Encoded date                             : UTC 2023-01-16 10:58:33
  482. Tagged date                              : UTC 2023-01-16 10:58:34
  483. Text #32
  484. ID                                       : 34
  485. Format                                   : Timed Text
  486. Codec ID                                 : tx3g
  487. Duration                                 : 1 h 43 min
  488. Bit rate mode                            : Variable
  489. Bit rate                                 : 87 b/s
  490. Frame rate                               : 0.497 FPS
  491. Stream size                              : 66.3 KiB (0%)
  492. Title                                    : Norwegian
  493. Language                                 : Norwegian Bokmal
  494. Forced                                   : No
  495. Encoded date                             : UTC 2023-01-16 10:58:33
  496. Tagged date                              : UTC 2023-01-16 10:58:34
  497. Text #33
  498. ID                                       : 35
  499. Format                                   : Timed Text
  500. Codec ID                                 : tx3g
  501. Duration                                 : 1 h 43 min
  502. Bit rate mode                            : Variable
  503. Bit rate                                 : 89 b/s
  504. Frame rate                               : 0.502 FPS
  505. Stream size                              : 67.4 KiB (0%)
  506. Title                                    : Polish
  507. Language                                 : Polish
  508. Forced                                   : No
  509. Encoded date                             : UTC 2023-01-16 10:58:33
  510. Tagged date                              : UTC 2023-01-16 10:58:34
  511. Text #34
  512. ID                                       : 36
  513. Format                                   : Timed Text
  514. Codec ID                                 : tx3g
  515. Duration                                 : 1 h 43 min
  516. Bit rate mode                            : Variable
  517. Bit rate                                 : 9 b/s
  518. Frame rate                               : 0.067 FPS
  519. Stream size                              : 6.82 KiB (0%)
  520. Title                                    : Polish
  521. Language                                 : Polish
  522. Forced                                   : No
  523. Encoded date                             : UTC 2023-01-16 10:58:33
  524. Tagged date                              : UTC 2023-01-16 10:58:34
  525. Text #35
  526. ID                                       : 37
  527. Format                                   : Timed Text
  528. Codec ID                                 : tx3g
  529. Duration                                 : 1 h 43 min
  530. Bit rate mode                            : Variable
  531. Bit rate                                 : 88 b/s
  532. Frame rate                               : 0.501 FPS
  533. Stream size                              : 66.9 KiB (0%)
  534. Title                                    : Portuguese
  535. Language                                 : Portuguese
  536. Forced                                   : No
  537. Encoded date                             : UTC 2023-01-16 10:58:33
  538. Tagged date                              : UTC 2023-01-16 10:58:34
  539. Text #36
  540. ID                                       : 38
  541. Format                                   : Timed Text
  542. Codec ID                                 : tx3g
  543. Duration                                 : 1 h 43 min
  544. Bit rate mode                            : Variable
  545. Bit rate                                 : 24 b/s
  546. Frame rate                               : 0.169 FPS
  547. Stream size                              : 18.6 KiB (0%)
  548. Title                                    : Portuguese
  549. Language                                 : Portuguese
  550. Forced                                   : No
  551. Encoded date                             : UTC 2023-01-16 10:58:33
  552. Tagged date                              : UTC 2023-01-16 10:58:34
  553. Text #37
  554. ID                                       : 39
  555. Format                                   : Timed Text
  556. Codec ID                                 : tx3g
  557. Duration                                 : 1 h 43 min
  558. Bit rate mode                            : Variable
  559. Bit rate                                 : 86 b/s
  560. Frame rate                               : 0.499 FPS
  561. Stream size                              : 65.5 KiB (0%)
  562. Title                                    : Portuguese
  563. Language                                 : Portuguese
  564. Forced                                   : No
  565. Encoded date                             : UTC 2023-01-16 10:58:33
  566. Tagged date                              : UTC 2023-01-16 10:58:34
  567. Text #38
  568. ID                                       : 40
  569. Format                                   : Timed Text
  570. Codec ID                                 : tx3g
  571. Duration                                 : 1 h 43 min
  572. Bit rate mode                            : Variable
  573. Bit rate                                 : 98 b/s
  574. Frame rate                               : 0.501 FPS
  575. Stream size                              : 74.4 KiB (0%)
  576. Title                                    : Romanian
  577. Language                                 : Romanian
  578. Forced                                   : No
  579. Encoded date                             : UTC 2023-01-16 10:58:33
  580. Tagged date                              : UTC 2023-01-16 10:58:34
  581. Text #39
  582. ID                                       : 41
  583. Format                                   : Timed Text
  584. Codec ID                                 : tx3g
  585. Duration                                 : 1 h 43 min
  586. Bit rate mode                            : Variable
  587. Bit rate                                 : 147 b/s
  588. Frame rate                               : 0.505 FPS
  589. Stream size                              : 112 KiB (0%)
  590. Title                                    : Russian
  591. Language                                 : Russian
  592. Forced                                   : No
  593. Encoded date                             : UTC 2023-01-16 10:58:34
  594. Tagged date                              : UTC 2023-01-16 10:58:34
  595. Text #40
  596. ID                                       : 42
  597. Format                                   : Timed Text
  598. Codec ID                                 : tx3g
  599. Duration                                 : 1 h 43 min
  600. Bit rate mode                            : Variable
  601. Bit rate                                 : 49 b/s
  602. Frame rate                               : 0.203 FPS
  603. Stream size                              : 37.2 KiB (0%)
  604. Title                                    : Russian
  605. Language                                 : Russian
  606. Forced                                   : No
  607. Encoded date                             : UTC 2023-01-16 10:58:34
  608. Tagged date                              : UTC 2023-01-16 10:58:34
  609. Text #41
  610. ID                                       : 43
  611. Format                                   : Timed Text
  612. Codec ID                                 : tx3g
  613. Duration                                 : 1 h 43 min
  614. Bit rate mode                            : Variable
  615. Bit rate                                 : 28 b/s
  616. Frame rate                               : 0.188 FPS
  617. Stream size                              : 21.3 KiB (0%)
  618. Title                                    : Spanish-EU
  619. Language                                 : Spanish
  620. Forced                                   : No
  621. Encoded date                             : UTC 2023-01-16 10:58:34
  622. Tagged date                              : UTC 2023-01-16 10:58:34
  623. Text #42
  624. ID                                       : 44
  625. Format                                   : Timed Text
  626. Codec ID                                 : tx3g
  627. Duration                                 : 1 h 43 min
  628. Bit rate mode                            : Variable
  629. Bit rate                                 : 31 b/s
  630. Frame rate                               : 0.198 FPS
  631. Stream size                              : 23.5 KiB (0%)
  632. Title                                    : Spanish-EU
  633. Language                                 : Spanish
  634. Forced                                   : No
  635. Encoded date                             : UTC 2023-01-16 10:58:34
  636. Tagged date                              : UTC 2023-01-16 10:58:34
  637. Text #43
  638. ID                                       : 45
  639. Format                                   : Timed Text
  640. Codec ID                                 : tx3g
  641. Duration                                 : 1 h 43 min
  642. Bit rate mode                            : Variable
  643. Bit rate                                 : 93 b/s
  644. Frame rate                               : 0.505 FPS
  645. Stream size                              : 71.0 KiB (0%)
  646. Title                                    : Spanish-EU
  647. Language                                 : Spanish
  648. Forced                                   : No
  649. Encoded date                             : UTC 2023-01-16 10:58:34
  650. Tagged date                              : UTC 2023-01-16 10:58:34
  651. Text #44
  652. ID                                       : 46
  653. Format                                   : Timed Text
  654. Codec ID                                 : tx3g
  655. Duration                                 : 1 h 43 min
  656. Bit rate mode                            : Variable
  657. Bit rate                                 : 89 b/s
  658. Frame rate                               : 0.498 FPS
  659. Stream size                              : 68.0 KiB (0%)
  660. Title                                    : Spanish-EU
  661. Language                                 : Spanish
  662. Forced                                   : No
  663. Encoded date                             : UTC 2023-01-16 10:58:34
  664. Tagged date                              : UTC 2023-01-16 10:58:34
  665. Text #45
  666. ID                                       : 47
  667. Format                                   : Timed Text
  668. Codec ID                                 : tx3g
  669. Duration                                 : 1 h 43 min
  670. Bit rate mode                            : Variable
  671. Bit rate                                 : 88 b/s
  672. Frame rate                               : 0.505 FPS
  673. Stream size                              : 67.2 KiB (0%)
  674. Title                                    : Swedish
  675. Language                                 : Swedish
  676. Forced                                   : No
  677. Encoded date                             : UTC 2023-01-16 10:58:34
  678. Tagged date                              : UTC 2023-01-16 10:58:34
  679. Text #46
  680. ID                                       : 48
  681. Format                                   : Timed Text
  682. Codec ID                                 : tx3g
  683. Duration                                 : 1 h 43 min
  684. Bit rate mode                            : Variable
  685. Bit rate                                 : 79 b/s
  686. Frame rate                               : 0.202 FPS
  687. Stream size                              : 59.8 KiB (0%)
  688. Title                                    : Thai
  689. Language                                 : Thai
  690. Forced                                   : No
  691. Encoded date                             : UTC 2023-01-16 10:58:34
  692. Tagged date                              : UTC 2023-01-16 10:58:34
  693. Text #47
  694. ID                                       : 49
  695. Format                                   : Timed Text
  696. Codec ID                                 : tx3g
  697. Duration                                 : 1 h 43 min
  698. Bit rate mode                            : Variable
  699. Bit rate                                 : 233 b/s
  700. Frame rate                               : 0.510 FPS
  701. Stream size                              : 177 KiB (0%)
  702. Title                                    : Thai
  703. Language                                 : Thai
  704. Forced                                   : No
  705. Encoded date                             : UTC 2023-01-16 10:58:34
  706. Tagged date                              : UTC 2023-01-16 10:58:34
  707. Text #48
  708. ID                                       : 50
  709. Format                                   : Timed Text
  710. Codec ID                                 : tx3g
  711. Duration                                 : 1 h 43 min
  712. Bit rate mode                            : Variable
  713. Bit rate                                 : 97 b/s
  714. Frame rate                               : 0.503 FPS
  715. Stream size                              : 73.5 KiB (0%)
  716. Title                                    : Turkish
  717. Language                                 : Turkish
  718. Forced                                   : No
  719. Encoded date                             : UTC 2023-01-16 10:58:34
  720. Tagged date                              : UTC 2023-01-16 10:58:34
  721. Text #49
  722. ID                                       : 51
  723. Format                                   : Timed Text
  724. Codec ID                                 : tx3g
  725. Duration                                 : 1 h 43 min
  726. Bit rate mode                            : Variable
  727. Bit rate                                 : 32 b/s
  728. Frame rate                               : 0.191 FPS
  729. Stream size                              : 24.5 KiB (0%)
  730. Title                                    : Turkish
  731. Language                                 : Turkish
  732. Forced                                   : No
  733. Encoded date                             : UTC 2023-01-16 10:58:34
  734. Tagged date                              : UTC 2023-01-16 10:58:34
  735. Text #50
  736. ID                                       : 52
  737. Format                                   : Timed Text
  738. Codec ID                                 : tx3g
  739. Duration                                 : 1 h 43 min
  740. Bit rate mode                            : Variable
  741. Bit rate                                 : 146 b/s
  742. Frame rate                               : 0.509 FPS
  743. Stream size                              : 111 KiB (0%)
  744. Title                                    : Ukrainian
  745. Language                                 : Ukrainian
  746. Forced                                   : No
  747. Encoded date                             : UTC 2023-01-16 10:58:34
  748. Tagged date                              : UTC 2023-01-16 10:58:34
  749. Text #51
  750. ID                                       : 53
  751. Format                                   : Timed Text
  752. Codec ID                                 : tx3g
  753. Duration                                 : 1 h 43 min
  754. Bit rate mode                            : Variable
  755. Bit rate                                 : 121 b/s
  756. Frame rate                               : 0.503 FPS
  757. Stream size                              : 92.3 KiB (0%)
  758. Title                                    : Vietnamese
  759. Language                                 : Vietnamese
  760. Forced                                   : No
  761. Encoded date                             : UTC 2023-01-16 10:58:34
  762. Tagged date                              : UTC 2023-01-16 10:58:34
复制代码

195728fcqbuubcbu8u2bsz.jpg

195733pghg202ul6lcu8p1.jpg

195737ntz99g9ul993uunx.jpg



Hao8k.cn提示您 点击下方附件名称 即可开始下载

网络炼狱:揭发N号房[中文字幕].Cyber.Hell.Exposing.an.Internet.Horror.2022.KOREAN.2160p.NF.WEB-DL.DDP5.1.DV.MP4.x265-DVSUX 9.12GB

Cyber.Hell.Exposing.an.Internet.Horror.2022.KOREAN.2160p.NF.WEB-DL.DDP5.1.DV.MP4.x265-DVSUX.torrent ( 23.51 KB )

回复

使用道具 举报

全部回复0 显示全部楼层

声明:您在社区发表的所有信息仅代表用户个人观点,与本网站立场无关,希望各位烧友理性发言,不发表违法国家法律禁止的话题。

您需要登录后才可以回帖 登录 | 立即注册

本版积分规则

开通会员 每日签到 返回顶部 返回列表