开启左侧

[剧情片] 绘图师的合约.The.Draughtsmans.Contract.1982.REMASTERED.1080p.BluRay.x264.FLAC.2.0-MaG 11.53GB

Hao8k资源组 发表于 2023-1-19 23:19:29 | 显示全部楼层 |阅读模式

马上注册 Hao8k.cn ,获得更好的体验,让你轻松玩转Hao8k

您需要 登录 才可以下载或查看,没有帐号?立即注册

x
214941om8p2k0diz8k00xj.jpg


标  题 绘图师的合约
译  名 画师的合同 / 起草人
片  名 The Draughtsman''s Contract
年  代 1982
产  地 英国
类  别 剧情 / 喜剧 / 悬疑 / 历史
语  言 英语 / 德语 / 荷兰语
上映日期 1982-09-04(威尼斯电影节)
IMDb评分 7.2/10 (10308人评价)
豆瓣评分 7.3/10 (895人评价)
片  长 108分钟
导  演 彼得·格林纳威 Peter Greenaway
编  剧 彼得·格林纳威 Peter Greenaway
演  员 安东尼·希金斯 Anthony Higgins
       珍妮特·苏兹曼 Janet Suzman
       安·路易斯·兰伯特 Anne-Louise Lambert
       休·弗拉瑟 Hugh Fraser
       尼尔·坎宁安 Neil Cunningham
       戴维·甘特 David Gant
       大卫·迈耶 David Meyer
       Tony Meyer Tony Meyer
       尼古拉斯·阿米尔 Nicolas Amer
       苏珊·克劳利 Suzan Crowley
       琳达·拉·普兰特 Lynda La Plante
       迈克尔·菲斯特 Michael Feast
       Sylvia Rotter Sylvia Rotter
       David Joss Buckley David Joss Buckley
       米迦勒·卡特 Michael Carter
       Vivienne Maya Vivienne Maya
       Dave Hill Dave Hill

简  介

故事发生在1694年的英国,家财万贯的郝博特夫人(珍妮特·苏兹曼 Janet Suzman 饰)雇佣了天才画师奈维尔(安东尼·希金斯 Anthony Higgins 饰),根据合同,后者需要替郝博特夫人所在的康普顿安斯庄园完成十二幅画作。在此期间,奈维尔和郝博特夫人之间产生了不伦的关系。                                                                      塔耳曼(休·弗拉瑟 Hugh Fraser 饰)是郝博特夫人的女婿,他一直希望能够得到堂皇富丽的康普顿安斯庄园,然而他的妻子塔耳曼太太(安·路易斯·兰伯特 Anne-Louise Lambert 饰)却一直没有子嗣,这令塔耳曼将在庄园中横行的奈维尔视作眼中钉。很快,奈维尔的情人名单里添上了塔耳曼太太的名字,此时的他并不知道的是,自己已经陷入了一个筹划已久的阴谋之中。

影片参数
  1. Video
  2. ID                                       : 1
  3. Format                                   : AVC
  4. Format/Info                              : Advanced Video Codec
  5. Format profile                           : [email protected]
  6. Format settings                          : CABAC / 4 Ref Frames
  7. Format settings, CABAC                   : Yes
  8. Format settings, Reference frames        : 4 frames
  9. Codec ID                                 : V_MPEG4/ISO/AVC
  10. Duration                                 : 1 h 47 min
  11. Bit rate                                 : 14.8 Mb/s
  12. Width                                    : 1 792 pixels
  13. Height                                   : 1 080 pixels
  14. Display aspect ratio                     : 5:3
  15. Frame rate mode                          : Constant
  16. Frame rate                               : 24.000 FPS
  17. Color space                              : YUV
  18. Chroma subsampling                       : 4:2:0
  19. Bit depth                                : 8 bits
  20. Scan type                                : Progressive
  21. Bits/(Pixel*Frame)                       : 0.318
  22. Stream size                              : 11.1 GiB (96%)
  23. Writing library                          : x264 core 157 r2935 545de2f
  24. Encoding settings                        : cabac=1 / ref=3 / deblock=1:-3:-3 / analyse=0x3:0x133 / me=umh / subme=10 / psy=1 / psy_rd=1.00:0.00 / mixed_ref=1 / me_range=32 / chroma_me=1 / trellis=2 / 8x8dct=1 / cqm=0 / deadzone=21,11 / fast_pskip=0 / chroma_qp_offset=-2 / threads=24 / lookahead_threads=4 / sliced_threads=0 / nr=0 / decimate=1 / interlaced=0 / bluray_compat=0 / constrained_intra=0 / bframes=8 / b_pyramid=2 / b_adapt=2 / b_bias=0 / direct=3 / weightb=1 / open_gop=0 / weightp=2 / keyint=240 / keyint_min=24 / scenecut=40 / intra_refresh=0 / rc_lookahead=60 / rc=crf / mbtree=0 / crf=21.2 / qcomp=0.60 / qpmin=0 / qpmax=69 / qpstep=4 / vbv_maxrate=62500 / vbv_bufsize=78125 / crf_max=0.0 / nal_hrd=none / filler=0 / ip_ratio=1.40 / pb_ratio=1.30 / aq=3:1.00
  25. Default                                  : Yes
  26. Forced                                   : No
  27. Color range                              : Limited
  28. Color primaries                          : BT.709
  29. Transfer characteristics                 : BT.709
  30. Matrix coefficients                      : BT.709
  31. Audio #1
  32. ID                                       : 2
  33. Format                                   : FLAC
  34. Format/Info                              : Free Lossless Audio Codec
  35. Codec ID                                 : A_FLAC
  36. Duration                                 : 1 h 47 min
  37. Bit rate mode                            : Variable
  38. Bit rate                                 : 313 kb/s
  39. Channel(s)                               : 1 channel
  40. Channel layout                           : C
  41. Sampling rate                            : 48.0 kHz
  42. Frame rate                               : 11.719 FPS (4096 SPF)
  43. Bit depth                                : 16 bits
  44. Compression mode                         : Lossless
  45. Stream size                              : 241 MiB (2%)
  46. Title                                    : FLAC 1.0 Mono Audio
  47. Writing library                          : libFLAC 1.3.2 (UTC 2017-01-01)
  48. Language                                 : English
  49. Default                                  : Yes
  50. Forced                                   : No
  51. MD5 of the unencoded content             : 86CA8C0B1EACF0F28B872C6DCCF0E761
  52. Audio #2
  53. ID                                       : 3
  54. Format                                   : AC-3
  55. Format/Info                              : Audio Coding 3
  56. Commercial name                          : Dolby Digital
  57. Codec ID                                 : A_AC3
  58. Duration                                 : 1 h 47 min
  59. Bit rate mode                            : Constant
  60. Bit rate                                 : 192 kb/s
  61. Channel(s)                               : 2 channels
  62. Channel layout                           : L R
  63. Sampling rate                            : 48.0 kHz
  64. Frame rate                               : 31.250 FPS (1536 SPF)
  65. Compression mode                         : Lossy
  66. Stream size                              : 148 MiB (1%)
  67. Title                                    : Commentary with Writer/Director Peter Greenaway
  68. Language                                 : English
  69. Service kind                             : Complete Main
  70. Default                                  : No
  71. Forced                                   : No
  72. Text #1
  73. ID                                       : 4
  74. Format                                   : UTF-8
  75. Codec ID                                 : S_TEXT/UTF8
  76. Codec ID/Info                            : UTF-8 Plain Text
  77. Duration                                 : 1 h 41 min
  78. Bit rate                                 : 83 b/s
  79. Frame rate                               : 0.232 FPS
  80. Count of elements                        : 1415
  81. Stream size                              : 62.5 KiB (0%)
  82. Language                                 : English
  83. Default                                  : Yes
  84. Forced                                   : No
  85. Text #2
  86. ID                                       : 5
  87. Format                                   : UTF-8
  88. Codec ID                                 : S_TEXT/UTF8
  89. Codec ID/Info                            : UTF-8 Plain Text
  90. Duration                                 : 1 h 44 min
  91. Bit rate                                 : 85 b/s
  92. Frame rate                               : 0.246 FPS
  93. Count of elements                        : 1546
  94. Stream size                              : 65.6 KiB (0%)
  95. Title                                    : SDH
  96. Language                                 : English
  97. Default                                  : No
  98. Forced                                   : No
  99. Text #3
  100. ID                                       : 6
  101. Format                                   : PGS
  102. Muxing mode                              : zlib
  103. Codec ID                                 : S_HDMV/PGS
  104. Codec ID/Info                            : Picture based subtitle format used on BDs/HD-DVDs
  105. Duration                                 : 1 h 46 min
  106. Bit rate                                 : 53.6 kb/s
  107. Frame rate                               : 0.472 FPS
  108. Count of elements                        : 3022
  109. Stream size                              : 40.9 MiB (0%)
  110. Title                                    : SDH
  111. Language                                 : English
  112. Default                                  : No
  113. Forced                                   : No
  114. Text #4
  115. ID                                       : 7
  116. Format                                   : PGS
  117. Muxing mode                              : zlib
  118. Codec ID                                 : S_HDMV/PGS
  119. Codec ID/Info                            : Picture based subtitle format used on BDs/HD-DVDs
  120. Duration                                 : 1 h 42 min
  121. Bit rate                                 : 56.1 kb/s
  122. Frame rate                               : 0.425 FPS
  123. Count of elements                        : 2603
  124. Stream size                              : 41.0 MiB (0%)
  125. Language                                 : German
  126. Default                                  : No
  127. Forced                                   : No
  128. Menu
  129. 00:00:00.000                             : en:Exorbitant Terms
  130. 00:11:18.334                             : en:Mr. Neville\''s Curriculum
  131. 00:17:20.917                             : en:A Presumptory Regime
  132. 00:24:28.292                             : en:Inquisitive Spectators
  133. 00:29:27.542                             : en:Someone is Getting Careless
  134. 00:38:31.459                             : en:Imprudence and Provocation
  135. 00:46:00.292                             : en:The Second Contract
  136. 00:52:20.251                             : en:Pictorial Conceit
  137. 00:57:02.251                             : en:Weighing Significance
  138. 01:05:46.084                             : en:Mr. Noyes\'' Stratagem
  139. 01:13:13.251                             : en:Allegorical Evidence
  140. 01:20:08.084                             : en:Extra-Contractual Liaisons
  141. 01:29:27.167                             : en:The Three Pomegranates
  142. 01:36:04.251                             : en:Property and Foresight
  143. 01:44:43.959                             : en:End Credits
复制代码

214946yl7mggfqvmnlle4e.jpg

214950nedbpjk3lsm322kl.jpg



Hao8k.cn提示您 点击下方附件名称 即可开始下载

绘图师的合约.The.Draughtsmans.Contract.1982.REMASTERED.1080p.BluRay.x264.FLAC.2.0-MaG 11.53GB

The.Draughtsmans.Contract.1982.REMASTERED.1080p.BluRay.x264.FLAC.2.0-MaG.torrent ( 15.1 KB )

回复

使用道具 举报

全部回复1 显示全部楼层
杨小云 发表于 2023-1-20 15:41:37 | 显示全部楼层
不错不错,感谢分享,感激不尽。。。
回复

使用道具 举报

声明:您在社区发表的所有信息仅代表用户个人观点,与本网站立场无关,希望各位烧友理性发言,不发表违法国家法律禁止的话题。

您需要登录后才可以回帖 登录 | 立即注册

本版积分规则

开通会员 每日签到 返回顶部 返回列表