开启左侧

[动作片] 反恐行动:独立日 Attack.On.Finland.2021.FINNISH.1080p.BluRay.x264.DD5.1-HANDJOB 8.78GB

Hao8k资源组 发表于 2022-9-13 19:03:16 | 显示全部楼层 |阅读模式

马上注册 Hao8k.cn ,获得更好的体验,让你轻松玩转Hao8k

您需要 登录 才可以下载或查看,没有帐号?立即注册

x


标  题 反恐行动:独立日
译  名 反恐行动
片  名 Omerta 6/12
年  代 2021
产  地 芬兰
类  别 动作 / 惊悚
语  言 芬兰语 / 瑞典语 / 塞尔维亚语 / 英语 / 俄语 / 法语 / 西班牙语
上映日期 2021-11-19(芬兰)
IMDb评分 5.9/10 (453人评价)
导  演 阿库·卢希米斯 Aku Louhimies
       安提·乔金恩 Antti Jokinen
编  剧 安提·乔金恩 Antti Jokinen
       贾里·奥拉维·兰塔拉 Jari Olavi Rantala
       Ilkka Remes Ilkka Remes
演  员 加斯帕·帕科农 Jasper Pääkkönen
       拉娜·布隆代尔 Nanna Blondell
       斯瓦利尔·古德纳松 Sverrir Gudnason
       凯茜·贝尔顿 Cathy Belton
       佩尔蒂·斯维霍姆 Pertti Sveholm
       尤汉·乌尔夫萨克 Juhan Ulfsak
       Zijad Gracic Zijad Gracic
       德拉戈米尔·米希克 Dragomir Mrsic
       马特·派厄斯 Märt Pius
       普瑞特·派厄斯 Priit Pius
       迈克尔·耶尔 Michael Yare
       罗伯特·恩克尔 Robert Enckell
       梅特尔·波拉 Mirtel Pohla
       劳拉·马尔米瓦拉 Laura Malmivaara
       Wanda Dubiel Wanda Dubiel
       泰斯托·奥克萨宁 Taisto Oksanen
       Juha-Pekka Mikkola Juha-Pekka Mikkola
       埃罗·米罗诺夫 Eero Milonoff
       佩卡·斯特朗 Pekka Strang
       乔纳斯·萨特莫 Joonas Saartamo
       克里斯托弗·古梅鲁斯 Kristofer Gummerus
       阿妮塔 Anita Smirnova
       Nina Jääskeläinen Nina Jääskeläinen
       Ripsa Koskinen-Papunen Ripsa Koskinen-Papunen
       Eemeli Louhimies Eemeli Louhimies
       贾里·奥拉维·兰塔拉 Jari Olavi Rantala
       马蒂·里斯蒂宁 Matti Ristinen

简  介

芬兰12月6日的独立日庆祝活动被总统府的袭击打断。一群贵宾被劫持为人质。安全服务官员麦克斯坦纳被命令作为为人质危机的谈判者,他最终查清恐怖袭击背后的主要目标是一个破坏欧洲安全的计划,同时还要揪出谁是幕后黑手。


影片参数
  1. Video
  2. ID                                       : 1
  3. Format                                   : AVC
  4. Format/Info                              : Advanced Video Codec
  5. Format profile                           : [email protected]
  6. Format settings                          : CABAC / 5 Ref Frames
  7. Format settings, CABAC                   : Yes
  8. Format settings, Reference frames        : 5 frames
  9. Codec ID                                 : V_MPEG4/ISO/AVC
  10. Duration                                 : 1 h 59 min
  11. Bit rate                                 : 9 847 kb/s
  12. Width                                    : 1 920 pixels
  13. Height                                   : 804 pixels
  14. Display aspect ratio                     : 2.40:1
  15. Frame rate mode                          : Constant
  16. Frame rate                               : 23.976 (24000/1001/189150) FPS
  17. Color space                              : YUV
  18. Chroma subsampling                       : 4:2:0
  19. Bit depth                                : 8 bits
  20. Scan type                                : Progressive
  21. Bits/(Pixel*Frame)                       : 0.266
  22. Stream size                              : 8.19 GiB (93%)
  23. Writing library                          : x264 core 164 r3065 ae03d92
  24. Encoding settings                        : cabac=1 / ref=5 / deblock=1:-3:-3 / analyse=0x3:0x133 / me=umh / subme=10 / psy=1 / psy_rd=1.00:0.00 / mixed_ref=1 / me_range=32 / chroma_me=1 / trellis=2 / 8x8dct=1 / cqm=0 / deadzone=21,11 / fast_pskip=0 / chroma_qp_offset=-2 / threads=24 / lookahead_threads=6 / sliced_threads=0 / nr=0 / decimate=0 / interlaced=0 / bluray_compat=0 / constrained_intra=0 / bframes=16 / b_pyramid=2 / b_adapt=2 / b_bias=0 / direct=3 / weightb=1 / open_gop=0 / weightp=2 / keyint=240 / keyint_min=24 / scenecut=40 / intra_refresh=0 / rc_lookahead=60 / rc=crf / mbtree=0 / crf=18.0 / qcomp=0.60 / qpmin=0 / qpmax=69 / qpstep=4 / vbv_maxrate=62500 / vbv_bufsize=78125 / crf_max=0.0 / nal_hrd=none / filler=0 / ip_ratio=1.40 / pb_ratio=1.30 / aq=2:1.00
  25. Default                                  : Yes
  26. Forced                                   : No
  27. Color range                              : Limited
  28. Color primaries                          : BT.709
  29. Transfer characteristics                 : BT.709
  30. Matrix coefficients                      : BT.709
  31. Audio
  32. ID                                       : 2
  33. Format                                   : AC-3
  34. Format/Info                              : Audio Coding 3
  35. Commercial name                          : Dolby Digital
  36. Codec ID                                 : A_AC3
  37. Duration                                 : 1 h 59 min
  38. Bit rate mode                            : Constant
  39. Bit rate                                 : 640 kb/s
  40. Channel(s)                               : 6 channels
  41. Channel layout                           : L R C LFE Ls Rs
  42. Sampling rate                            : 48.0 kHz
  43. Frame rate                               : 31.250 FPS (1536 SPF)
  44. Compression mode                         : Lossy
  45. Stream size                              : 545 MiB (6%)
  46. Language                                 : English
  47. Service kind                             : Complete Main
  48. Default                                  : Yes
  49. Forced                                   : No
  50. Text #1
  51. ID                                       : 3
  52. Format                                   : UTF-8
  53. Codec ID                                 : S_TEXT/UTF8
  54. Codec ID/Info                            : UTF-8 Plain Text
  55. Duration                                 : 1 h 49 min
  56. Bit rate                                 : 23 b/s
  57. Frame rate                               : 0.087 FPS
  58. Count of elements                        : 572
  59. Stream size                              : 18.5 KiB (0%)
  60. Title                                    : English (Forced)
  61. Language                                 : English
  62. Default                                  : Yes
  63. Forced                                   : No
  64. Text #2
  65. ID                                       : 4
  66. Format                                   : UTF-8
  67. Codec ID                                 : S_TEXT/UTF8
  68. Codec ID/Info                            : UTF-8 Plain Text
  69. Duration                                 : 1 h 53 min
  70. Bit rate                                 : 27 b/s
  71. Frame rate                               : 0.114 FPS
  72. Count of elements                        : 777
  73. Stream size                              : 22.6 KiB (0%)
  74. Title                                    : Finnish (Forced)
  75. Language                                 : Finnish
  76. Default                                  : No
  77. Forced                                   : No
  78. Text #3
  79. ID                                       : 5
  80. Format                                   : PGS
  81. Muxing mode                              : zlib
  82. Codec ID                                 : S_HDMV/PGS
  83. Codec ID/Info                            : Picture based subtitle format used on BDs/HD-DVDs
  84. Duration                                 : 1 h 54 min
  85. Bit rate                                 : 45.8 kb/s
  86. Frame rate                               : 0.339 FPS
  87. Count of elements                        : 2324
  88. Stream size                              : 37.4 MiB (0%)
  89. Language                                 : Finnish
  90. Default                                  : No
  91. Forced                                   : No
  92. Text #4
  93. ID                                       : 6
  94. Format                                   : UTF-8
  95. Codec ID                                 : S_TEXT/UTF8
  96. Codec ID/Info                            : UTF-8 Plain Text
  97. Duration                                 : 1 h 58 min
  98. Bit rate                                 : 39 b/s
  99. Frame rate                               : 0.140 FPS
  100. Count of elements                        : 996
  101. Stream size                              : 33.8 KiB (0%)
  102. Language                                 : Danish
  103. Default                                  : No
  104. Forced                                   : No
  105. Text #5
  106. ID                                       : 7
  107. Format                                   : PGS
  108. Muxing mode                              : zlib
  109. Codec ID                                 : S_HDMV/PGS
  110. Codec ID/Info                            : Picture based subtitle format used on BDs/HD-DVDs
  111. Duration                                 : 1 h 54 min
  112. Bit rate                                 : 62.5 kb/s
  113. Frame rate                               : 0.317 FPS
  114. Count of elements                        : 2166
  115. Stream size                              : 51.0 MiB (0%)
  116. Language                                 : German
  117. Default                                  : No
  118. Forced                                   : No
  119. Text #6
  120. ID                                       : 8
  121. Format                                   : UTF-8
  122. Codec ID                                 : S_TEXT/UTF8
  123. Codec ID/Info                            : UTF-8 Plain Text
  124. Duration                                 : 1 h 58 min
  125. Bit rate                                 : 38 b/s
  126. Frame rate                               : 0.142 FPS
  127. Count of elements                        : 1010
  128. Stream size                              : 33.4 KiB (0%)
  129. Language                                 : Norwegian
  130. Default                                  : No
  131. Forced                                   : No
  132. Text #7
  133. ID                                       : 9
  134. Format                                   : UTF-8
  135. Codec ID                                 : S_TEXT/UTF8
  136. Codec ID/Info                            : UTF-8 Plain Text
  137. Duration                                 : 1 h 58 min
  138. Bit rate                                 : 40 b/s
  139. Frame rate                               : 0.142 FPS
  140. Count of elements                        : 1011
  141. Stream size                              : 35.4 KiB (0%)
  142. Language                                 : Swedish
  143. Default                                  : No
  144. Forced                                   : No
  145. Menu
  146. 00:00:00.000                             : :Chapter 1
  147. 00:07:21.149                             : :Chapter 2
  148. 00:16:38.706                             : :Chapter 3
  149. 00:28:11.064                             : :Chapter 4
  150. 00:38:43.613                             : :Chapter 5
  151. 00:49:21.250                             : :Chapter 6
  152. 00:59:00.495                             : :Chapter 7
  153. 01:10:52.206                             : :Chapter 8
  154. 01:19:54.623                             : :Chapter 9
  155. 01:29:04.673                             : :Chapter 10
  156. 01:38:27.193                             : :Chapter 11
  157. 01:48:52.234                             : :Chapter 12
复制代码



Hao8k.cn提示您 点击下方附件名称 即可开始下载

反恐行动:独立日 Attack.On.Finland.2021.FINNISH.1080p.BluRay.x264.DD5.1-HANDJOB 8.78GB

Attack.On.Finland.2021.FINNISH.1080p.BluRay.x264.DD5.1-HANDJOB.torrent ( 22.61 KB )

回复

使用道具 举报

全部回复1 显示全部楼层
杨小云 发表于 6 天前 | 显示全部楼层
不错不错,感谢分享,感激不尽。。。
回复

使用道具 举报

声明:您在社区发表的所有信息仅代表用户个人观点,与本网站立场无关,希望各位烧友理性发言,不发表违法国家法律禁止的话题。

您需要登录后才可以回帖 登录 | 立即注册

本版积分规则

开通会员 每日签到 返回顶部 返回列表