开启左侧

[剧情片] 兵临城下 Enemy.at.the.Gates.2001.REMASTERED.1080p.BluRay.x264.DTS-FGT 11.91GB

Hao8k资源组 发表于 2022-9-2 22:03:54 | 显示全部楼层 |阅读模式

马上注册 Hao8k.cn ,获得更好的体验,让你轻松玩转Hao8k

您需要 登录 才可以下载或查看,没有帐号?立即注册

x


标  题 兵临城下
译  名 决战中的较量 / 大敌当前(台) / 敌对边缘(港)
片  名 Enemy at the Gates
年  代 2001
产  地 爱尔兰 / 英国 / 法国 / 德国 / 美国
类  别 剧情 / 历史 / 战争
语  言 英语 / 德语 / 俄语
上映日期 2001-07-21(中国大陆) / 2001-02-07(柏林电影节) / 2001-03-16(英国/美国)
IMDb评分 7.6/10 (253588人评价)
豆瓣评分 8.5/10 (170356人评价)
片  长 131 分钟
导  演 让-雅克·阿诺 Jean-Jacques Annaud
编  剧 让-雅克·阿诺 Jean-Jacques Annaud
       阿兰·戈达尔 Alain Godard
演  员 裘德·洛 Jude Law
       艾德·哈里斯 Ed Harris
       蕾切尔·薇兹 Rachel Weisz
       约瑟夫·费因斯 Joseph Fiennes
       鲍勃·霍斯金斯 Bob Hoskins
       朗·普尔曼 Ron Perlman
       埃娃·马特斯 Eva Mattes
       加布瑞尔·汤姆森 Gabriel Thomson
       马蒂亚斯·哈比希 Matthias Habich
       索菲·罗伊斯 Sophie Rois
       伊万·舍甫多夫 Ivan Shvedoff
       汉斯·马丁·施蒂尔 Hans Martin Stier
       克雷蒙斯·施伊克 Clemens Schick
       莱恩·库德里亚维斯基 Lenn Kudrjawizki
       马克西姆·科瓦莱夫斯基 Maxim Kovalevski
       格纳迪·文格洛夫 Gennadi Vengerov
       达·范·汉森德 Dan van Husen
       Markus Majowski Markus Majowski
       罗伯特·施塔德洛伯 Robert Stadlober
       霍尔格·汉德克 Holger Handtke
       马克·比肖夫 Marc Bischoff
       马克·扎克 Mark Zak
       Thomas Petruo Thomas Petruo
       汤姆·拉斯齐哈 Tom Wlaschiha
       Dana Cebulla Dana Cebulla
       维尔纳·德恩 Werner Daehn
       波热尔·尤内尔 Birol Ünel
       Vladimir Vilanov Vladimir Vilanov
       迈克尔·施内克 Michael Schenk
       Axel Neumann Axel Neumann
       Toby Cockerell Toby Cockerell
       埃迪·约瑟夫 Eddy Joseph
       Martin Glyn Murray Martin Glyn Murray
       瓦伦丁·普拉塔里努 Valentin Platareanu
       金锋 Feng Jin
       曲敬国 Jingguo Qu
        Mikhail N. Matveev
       André Kaminski André Kaminski
       让-雅克·阿诺 Jean-Jacques Annaud
       詹姆斯·霍纳 James Horner
       罗伯特·弗赖斯 Robert Fraisse
       Humphrey Dixon Humphrey Dixon
       诺艾尔·泊松 Noëlle Boisson
       Dominic Masters Dominic Masters
       史蒂文·劳伦斯 Steven Lawrence
       沃尔夫·克罗伊格 Wolf Kroeger
       Neil Lamont Neil Lamont
       彼得·弗兰西斯 Peter Francis
       Simon Wakefield Simon Wakefield
       詹蒂·叶茨 Janty Yates
       琳达·德维塔 Linda DeVetta
       Hasso von Hugo Hasso von Hugo
       艾伦·史密斯 Allen Smith
       保罗·戈德史密斯 Paul Goldsmith
       马丁·希尔 Martin Hill
       乔迪·约翰逊 Jody Johnson
       Merrin Jensen Merrin Jensen
       Alex Hope Alex Hope
       保罗·J·富兰克林 Paul J. Franklin
       彼特·贝布 Pete Bebb
       Robin Aristorenas Robin Aristorenas
       Duncan Robson Duncan Robson
       Mark Topping Mark Topping
       皮特·汉森 Pete Hanson
       Moritz Glaesle Moritz Glaesle
       约翰·霍格沃德 Jan Hogevold
       加文·格雷厄姆 Gavin Graham
       Frank Wegerhoff Frank Wegerhoff
       Michael Illingworth Michael Illingworth
       弗雷泽·丘吉尔 Frazer Churchill
       理查德·贝恩 Richard Bain
       Åsa Svedberg Åsa Svedberg
       汤姆·伍德 Tom Wood
       托马斯·坦嫩伯格 Thomas Tannenberger
       Paul Riddle Paul Riddle
       查理·诺伯 Charlie Noble
       Gavin Toomey Gavin Toomey
       马克·尼尔姆斯 Mark Nelmes
       彼得·江 Peter Chiang
       Olcun Tan Olcun Tan
       彼得·迈泽尔斯 Peter Muyzers
       派迪·伊森 Paddy Eason
       Ed Hawkins Ed Hawkins
       萨姆·布里奇 Sam Breach
标  签 二战 / 战争 / 狙击 / 美国 / 裘德·洛 / JudeLaw / 德国 / 历史

简  介

斯大林格勒战役中,瓦西里(裘德•洛 Jude Law 饰)是一个威震部队的神枪手。他的好枪法百发百中,令敌人闻风丧胆。                                    
                                为了激励士气,树立榜样,瓦西里的战友——苏军文宣部军官丹尼洛夫(约瑟夫•费因斯 Joseph Fiennes 饰)在报纸上大量刊登瓦西里的英雄事迹,令瓦西里的形象更为高大。然而,坦妮娅(雷切尔•薇姿 Rachel Weisz 饰)的出现,让瓦西里和丹尼洛夫都同时迷恋上了这个飒爽女兵。但塔妮娅喜欢的是瓦西里,这让丹尼洛夫大为妒忌。                                    
                                另一方面,德军派出了他们的狙击手康尼(艾德•哈里斯 Ed Harris 饰),让同是神枪手的他抗衡瓦西里。在硝烟弥漫的战场上,瓦西里和康尼开始了斗智斗勇的决斗。


影片参数
  1. Video
  2. ID                                       : 1
  3. Format                                   : AVC
  4. Format/Info                              : Advanced Video Codec
  5. Format profile                           : [email protected]
  6. Format settings                          : CABAC / 4 Ref Frames
  7. Format settings, CABAC                   : Yes
  8. Format settings, Reference frames        : 4 frames
  9. Codec ID                                 : V_MPEG4/ISO/AVC
  10. Duration                                 : 2 h 11 min
  11. Bit rate                                 : 11.5 Mb/s
  12. Width                                    : 1 920 pixels
  13. Height                                   : 816 pixels
  14. Display aspect ratio                     : 2.35:1
  15. Frame rate mode                          : Constant
  16. Frame rate                               : 23.976 (24000/1001/189150) FPS
  17. Color space                              : YUV
  18. Chroma subsampling                       : 4:2:0
  19. Bit depth                                : 8 bits
  20. Scan type                                : Progressive
  21. Bits/(Pixel*Frame)                       : 0.306
  22. Stream size                              : 10.5 GiB (88%)
  23. Writing library                          : x264 core 148 r2795M aaa9aa8
  24. Encoding settings                        : cabac=1 / ref=4 / deblock=1:-2:-2 / analyse=0x3:0x113 / me=umh / subme=9 / psy=1 / psy_rd=1.00:0.15 / mixed_ref=1 / me_range=16 / chroma_me=1 / trellis=2 / 8x8dct=1 / cqm=0 / deadzone=21,11 / fast_pskip=1 / chroma_qp_offset=-3 / threads=72 / lookahead_threads=3 / sliced_threads=0 / nr=0 / decimate=1 / interlaced=0 / bluray_compat=0 / constrained_intra=0 / bframes=3 / b_pyramid=2 / b_adapt=1 / b_bias=0 / direct=3 / weightb=1 / open_gop=0 / weightp=2 / keyint=250 / keyint_min=25 / scenecut=40 / intra_refresh=0 / rc_lookahead=50 / rc=2pass / mbtree=1 / bitrate=11500 / ratetol=1.0 / qcomp=0.60 / qpmin=0 / qpmax=69 / qpstep=4 / cplxblur=20.0 / qblur=0.5 / vbv_maxrate=31250 / vbv_bufsize=31250 / nal_hrd=none / filler=0 / ip_ratio=1.40 / aq=1:1.00
  25. Default                                  : Yes
  26. Forced                                   : No
  27. Audio
  28. ID                                       : 2
  29. Format                                   : DTS
  30. Format/Info                              : Digital Theater Systems
  31. Codec ID                                 : A_DTS
  32. Duration                                 : 2 h 11 min
  33. Bit rate mode                            : Constant
  34. Bit rate                                 : 1 509 kb/s
  35. Channel(s)                               : 6 channels
  36. Channel layout                           : C L R Ls Rs LFE
  37. Sampling rate                            : 48.0 kHz
  38. Frame rate                               : 93.750 FPS (512 SPF)
  39. Bit depth                                : 24 bits
  40. Compression mode                         : Lossy
  41. Stream size                              : 1.38 GiB (12%)
  42. Language                                 : English
  43. Default                                  : Yes
  44. Forced                                   : No
  45. Text #1
  46. ID                                       : 3
  47. Format                                   : UTF-8
  48. Codec ID                                 : S_TEXT/UTF8
  49. Codec ID/Info                            : UTF-8 Plain Text
  50. Duration                                 : 2 h 1 min
  51. Bit rate                                 : 39 b/s
  52. Frame rate                               : 0.129 FPS
  53. Count of elements                        : 938
  54. Stream size                              : 35.2 KiB (0%)
  55. Language                                 : English
  56. Default                                  : Yes
  57. Forced                                   : No
  58. Text #2
  59. ID                                       : 4
  60. Format                                   : UTF-8
  61. Codec ID                                 : S_TEXT/UTF8
  62. Codec ID/Info                            : UTF-8 Plain Text
  63. Duration                                 : 2 h 2 min
  64. Bit rate                                 : 42 b/s
  65. Frame rate                               : 0.149 FPS
  66. Count of elements                        : 1094
  67. Stream size                              : 37.9 KiB (0%)
  68. Title                                    : SDH
  69. Language                                 : English
  70. Default                                  : No
  71. Forced                                   : No
  72. Menu
  73. 00:00:00.000                             : en:1. The Wolf Hunter
  74. 00:02:46.875                             : en:2. Crossing the Volga
  75. 00:09:47.796                             : en:3. Suicide Charge
  76. 00:15:11.369                             : en:4. Five Bullets
  77. 00:22:09.995                             : en:5. Stalin\''s Envoy
  78. 00:34:13.218                             : en:6. Major Konig
  79. 00:37:08.268                             : en:7. The Department Store
  80. 00:46:18.818                             : en:8. Kruschev\''s Menace
  81. 00:50:44.792                             : en:9. Steel Teeth
  82. 00:56:05.612                             : en:10. Koulikov\''s Death
  83. 01:02:40.840                             : en:11. Tania\''s Parents
  84. 01:08:24.017                             : en:12. The Tractor Factory
  85. 01:16:46.769                             : en:13. The Mirror Effect
  86. 01:22:36.493                             : en:14. Intimacy
  87. 01:29:49.593                             : en:15. Sacha\''s Risk
  88. 01:35:51.996                             : en:16. Among the Dead
  89. 01:42:05.077                             : en:17. The Young Cobbler\''s Fate
  90. 01:55:02.395                             : en:18. Danilov\''s Remorse
  91. 01:57:27.249                             : en:19. Duel
  92. 02:01:20.231                             : en:20. Victory
复制代码



Hao8k.cn提示您 点击下方附件名称 即可开始下载

兵临城下 Enemy.at.the.Gates.2001.REMASTERED.1080p.BluRay.x264.DTS-FGT 11.91GB

Enemy.at.the.Gates.2001.REMASTERED.1080p.BluRay.x264.DTS-FGT.torrent ( 15.54 KB )

回复

使用道具 举报

全部回复2 显示全部楼层
Sidetoyou 发表于 2022-9-3 00:21:01 | 显示全部楼层
感谢分享
回复

使用道具 举报

杨小云 发表于 6 天前 | 显示全部楼层
不错不错,感谢分享,感激不尽。。。
回复

使用道具 举报

声明:您在社区发表的所有信息仅代表用户个人观点,与本网站立场无关,希望各位烧友理性发言,不发表违法国家法律禁止的话题。

您需要登录后才可以回帖 登录 | 立即注册

本版积分规则

开通会员 每日签到 返回顶部 返回列表