开启左侧

[剧情片] 兵临城下 Enemy.at.the.Gates.2001.REMASTERED.1080p.BluRay.x264.TrueHD.5.1-FGT 14.42GB

Hao8k资源组 发表于 2022-9-2 22:03:33 | 显示全部楼层 |阅读模式

马上注册 Hao8k.cn ,获得更好的体验,让你轻松玩转Hao8k

您需要 登录 才可以下载或查看,没有帐号?立即注册

x


标  题 兵临城下
译  名 决战中的较量 / 大敌当前(台) / 敌对边缘(港)
片  名 Enemy at the Gates
年  代 2001
产  地 爱尔兰 / 英国 / 法国 / 德国 / 美国
类  别 剧情 / 历史 / 战争
语  言 英语 / 德语 / 俄语
上映日期 2001-07-21(中国大陆) / 2001-02-07(柏林电影节) / 2001-03-16(英国/美国)
IMDb评分 7.6/10 (253588人评价)
豆瓣评分 8.5/10 (170356人评价)
片  长 131 分钟
导  演 让-雅克·阿诺 Jean-Jacques Annaud
编  剧 让-雅克·阿诺 Jean-Jacques Annaud
       阿兰·戈达尔 Alain Godard
演  员 裘德·洛 Jude Law
       艾德·哈里斯 Ed Harris
       蕾切尔·薇兹 Rachel Weisz
       约瑟夫·费因斯 Joseph Fiennes
       鲍勃·霍斯金斯 Bob Hoskins
       朗·普尔曼 Ron Perlman
       埃娃·马特斯 Eva Mattes
       加布瑞尔·汤姆森 Gabriel Thomson
       马蒂亚斯·哈比希 Matthias Habich
       索菲·罗伊斯 Sophie Rois
       伊万·舍甫多夫 Ivan Shvedoff
       汉斯·马丁·施蒂尔 Hans Martin Stier
       克雷蒙斯·施伊克 Clemens Schick
       莱恩·库德里亚维斯基 Lenn Kudrjawizki
       马克西姆·科瓦莱夫斯基 Maxim Kovalevski
       格纳迪·文格洛夫 Gennadi Vengerov
       达·范·汉森德 Dan van Husen
       Markus Majowski Markus Majowski
       罗伯特·施塔德洛伯 Robert Stadlober
       霍尔格·汉德克 Holger Handtke
       马克·比肖夫 Marc Bischoff
       马克·扎克 Mark Zak
       Thomas Petruo Thomas Petruo
       汤姆·拉斯齐哈 Tom Wlaschiha
       Dana Cebulla Dana Cebulla
       维尔纳·德恩 Werner Daehn
       波热尔·尤内尔 Birol Ünel
       Vladimir Vilanov Vladimir Vilanov
       迈克尔·施内克 Michael Schenk
       Axel Neumann Axel Neumann
       Toby Cockerell Toby Cockerell
       埃迪·约瑟夫 Eddy Joseph
       Martin Glyn Murray Martin Glyn Murray
       瓦伦丁·普拉塔里努 Valentin Platareanu
       金锋 Feng Jin
       曲敬国 Jingguo Qu
        Mikhail N. Matveev
       André Kaminski André Kaminski
       让-雅克·阿诺 Jean-Jacques Annaud
       詹姆斯·霍纳 James Horner
       罗伯特·弗赖斯 Robert Fraisse
       Humphrey Dixon Humphrey Dixon
       诺艾尔·泊松 Noëlle Boisson
       Dominic Masters Dominic Masters
       史蒂文·劳伦斯 Steven Lawrence
       沃尔夫·克罗伊格 Wolf Kroeger
       Neil Lamont Neil Lamont
       彼得·弗兰西斯 Peter Francis
       Simon Wakefield Simon Wakefield
       詹蒂·叶茨 Janty Yates
       琳达·德维塔 Linda DeVetta
       Hasso von Hugo Hasso von Hugo
       艾伦·史密斯 Allen Smith
       保罗·戈德史密斯 Paul Goldsmith
       马丁·希尔 Martin Hill
       乔迪·约翰逊 Jody Johnson
       Merrin Jensen Merrin Jensen
       Alex Hope Alex Hope
       保罗·J·富兰克林 Paul J. Franklin
       彼特·贝布 Pete Bebb
       Robin Aristorenas Robin Aristorenas
       Duncan Robson Duncan Robson
       Mark Topping Mark Topping
       皮特·汉森 Pete Hanson
       Moritz Glaesle Moritz Glaesle
       约翰·霍格沃德 Jan Hogevold
       加文·格雷厄姆 Gavin Graham
       Frank Wegerhoff Frank Wegerhoff
       Michael Illingworth Michael Illingworth
       弗雷泽·丘吉尔 Frazer Churchill
       理查德·贝恩 Richard Bain
       Åsa Svedberg Åsa Svedberg
       汤姆·伍德 Tom Wood
       托马斯·坦嫩伯格 Thomas Tannenberger
       Paul Riddle Paul Riddle
       查理·诺伯 Charlie Noble
       Gavin Toomey Gavin Toomey
       马克·尼尔姆斯 Mark Nelmes
       彼得·江 Peter Chiang
       Olcun Tan Olcun Tan
       彼得·迈泽尔斯 Peter Muyzers
       派迪·伊森 Paddy Eason
       Ed Hawkins Ed Hawkins
       萨姆·布里奇 Sam Breach
标  签 二战 / 战争 / 狙击 / 美国 / 裘德·洛 / JudeLaw / 德国 / 历史

简  介

斯大林格勒战役中,瓦西里(裘德•洛 Jude Law 饰)是一个威震部队的神枪手。他的好枪法百发百中,令敌人闻风丧胆。                                    
                                为了激励士气,树立榜样,瓦西里的战友——苏军文宣部军官丹尼洛夫(约瑟夫•费因斯 Joseph Fiennes 饰)在报纸上大量刊登瓦西里的英雄事迹,令瓦西里的形象更为高大。然而,坦妮娅(雷切尔•薇姿 Rachel Weisz 饰)的出现,让瓦西里和丹尼洛夫都同时迷恋上了这个飒爽女兵。但塔妮娅喜欢的是瓦西里,这让丹尼洛夫大为妒忌。                                    
                                另一方面,德军派出了他们的狙击手康尼(艾德•哈里斯 Ed Harris 饰),让同是神枪手的他抗衡瓦西里。在硝烟弥漫的战场上,瓦西里和康尼开始了斗智斗勇的决斗。


影片参数
  1. Video
  2. ID                                       : 1
  3. Format                                   : AVC
  4. Format/Info                              : Advanced Video Codec
  5. Format profile                           : [email protected]
  6. Format settings                          : CABAC / 4 Ref Frames
  7. Format settings, CABAC                   : Yes
  8. Format settings, Reference frames        : 4 frames
  9. Codec ID                                 : V_MPEG4/ISO/AVC
  10. Duration                                 : 2 h 11 min
  11. Bit rate                                 : 11.5 Mb/s
  12. Width                                    : 1 920 pixels
  13. Height                                   : 816 pixels
  14. Display aspect ratio                     : 2.35:1
  15. Frame rate mode                          : Constant
  16. Frame rate                               : 23.976 (24000/1001/189150) FPS
  17. Color space                              : YUV
  18. Chroma subsampling                       : 4:2:0
  19. Bit depth                                : 8 bits
  20. Scan type                                : Progressive
  21. Bits/(Pixel*Frame)                       : 0.306
  22. Stream size                              : 10.5 GiB (73%)
  23. Writing library                          : x264 core 148 r2795M aaa9aa8
  24. Encoding settings                        : cabac=1 / ref=4 / deblock=1:-2:-2 / analyse=0x3:0x113 / me=umh / subme=9 / psy=1 / psy_rd=1.00:0.15 / mixed_ref=1 / me_range=16 / chroma_me=1 / trellis=2 / 8x8dct=1 / cqm=0 / deadzone=21,11 / fast_pskip=1 / chroma_qp_offset=-3 / threads=72 / lookahead_threads=3 / sliced_threads=0 / nr=0 / decimate=1 / interlaced=0 / bluray_compat=0 / constrained_intra=0 / bframes=3 / b_pyramid=2 / b_adapt=1 / b_bias=0 / direct=3 / weightb=1 / open_gop=0 / weightp=2 / keyint=250 / keyint_min=25 / scenecut=40 / intra_refresh=0 / rc_lookahead=50 / rc=2pass / mbtree=1 / bitrate=11500 / ratetol=1.0 / qcomp=0.60 / qpmin=0 / qpmax=69 / qpstep=4 / cplxblur=20.0 / qblur=0.5 / vbv_maxrate=31250 / vbv_bufsize=31250 / nal_hrd=none / filler=0 / ip_ratio=1.40 / aq=1:1.00
  25. Default                                  : Yes
  26. Forced                                   : No
  27. Audio #1
  28. ID                                       : 2
  29. Format                                   : MLP FBA
  30. Format/Info                              : Meridian Lossless Packing FBA
  31. Commercial name                          : Dolby TrueHD
  32. Codec ID                                 : A_TRUEHD
  33. Duration                                 : 2 h 11 min
  34. Bit rate mode                            : Variable
  35. Bit rate                                 : 3 485 kb/s
  36. Maximum bit rate                         : 4 950 kb/s
  37. Channel(s)                               : 6 channels
  38. Channel layout                           : L R C LFE Ls Rs
  39. Sampling rate                            : 48.0 kHz
  40. Frame rate                               : 1 200.000 FPS (40 SPF)
  41. Compression mode                         : Lossless
  42. Stream size                              : 3.19 GiB (22%)
  43. Title                                    : TrueHD 5.1
  44. Language                                 : English
  45. Default                                  : Yes
  46. Forced                                   : No
  47. Audio #2
  48. ID                                       : 3
  49. Format                                   : AC-3
  50. Format/Info                              : Audio Coding 3
  51. Commercial name                          : Dolby Digital
  52. Codec ID                                 : A_AC3
  53. Duration                                 : 2 h 11 min
  54. Bit rate mode                            : Constant
  55. Bit rate                                 : 640 kb/s
  56. Channel(s)                               : 6 channels
  57. Channel layout                           : L R C LFE Ls Rs
  58. Sampling rate                            : 48.0 kHz
  59. Frame rate                               : 31.250 FPS (1536 SPF)
  60. Compression mode                         : Lossy
  61. Stream size                              : 600 MiB (4%)
  62. Title                                    : DD 5.1
  63. Language                                 : English
  64. Service kind                             : Complete Main
  65. Default                                  : No
  66. Forced                                   : No
  67. Text #1
  68. ID                                       : 4
  69. Format                                   : UTF-8
  70. Codec ID                                 : S_TEXT/UTF8
  71. Codec ID/Info                            : UTF-8 Plain Text
  72. Duration                                 : 2 h 1 min
  73. Bit rate                                 : 39 b/s
  74. Frame rate                               : 0.129 FPS
  75. Count of elements                        : 938
  76. Stream size                              : 35.2 KiB (0%)
  77. Language                                 : English
  78. Default                                  : Yes
  79. Forced                                   : No
  80. Text #2
  81. ID                                       : 5
  82. Format                                   : UTF-8
  83. Codec ID                                 : S_TEXT/UTF8
  84. Codec ID/Info                            : UTF-8 Plain Text
  85. Duration                                 : 2 h 2 min
  86. Bit rate                                 : 42 b/s
  87. Frame rate                               : 0.149 FPS
  88. Count of elements                        : 1094
  89. Stream size                              : 37.9 KiB (0%)
  90. Title                                    : SDH
  91. Language                                 : English
  92. Default                                  : No
  93. Forced                                   : No
  94. Text #3
  95. ID                                       : 6
  96. Format                                   : PGS
  97. Muxing mode                              : zlib
  98. Codec ID                                 : S_HDMV/PGS
  99. Codec ID/Info                            : Picture based subtitle format used on BDs/HD-DVDs
  100. Duration                                 : 2 h 1 min
  101. Bit rate                                 : 25.0 kb/s
  102. Frame rate                               : 0.257 FPS
  103. Count of elements                        : 1870
  104. Stream size                              : 21.7 MiB (0%)
  105. Title                                    : English
  106. Language                                 : English
  107. Default                                  : No
  108. Forced                                   : No
  109. Text #4
  110. ID                                       : 7
  111. Format                                   : PGS
  112. Muxing mode                              : zlib
  113. Codec ID                                 : S_HDMV/PGS
  114. Codec ID/Info                            : Picture based subtitle format used on BDs/HD-DVDs
  115. Duration                                 : 2 h 2 min
  116. Bit rate                                 : 28.2 kb/s
  117. Frame rate                               : 0.300 FPS
  118. Count of elements                        : 2198
  119. Stream size                              : 24.6 MiB (0%)
  120. Title                                    : English (SDH)
  121. Language                                 : English
  122. Default                                  : No
  123. Forced                                   : No
  124. Text #5
  125. ID                                       : 8
  126. Format                                   : PGS
  127. Muxing mode                              : zlib
  128. Codec ID                                 : S_HDMV/PGS
  129. Codec ID/Info                            : Picture based subtitle format used on BDs/HD-DVDs
  130. Duration                                 : 2 h 2 min
  131. Bit rate                                 : 25.4 kb/s
  132. Frame rate                               : 0.259 FPS
  133. Count of elements                        : 1906
  134. Stream size                              : 22.3 MiB (0%)
  135. Title                                    : French (Canadian)
  136. Language                                 : French
  137. Default                                  : No
  138. Forced                                   : No
  139. Text #6
  140. ID                                       : 9
  141. Format                                   : PGS
  142. Muxing mode                              : zlib
  143. Codec ID                                 : S_HDMV/PGS
  144. Codec ID/Info                            : Picture based subtitle format used on BDs/HD-DVDs
  145. Duration                                 : 2 h 9 min
  146. Bit rate                                 : 21.1 kb/s
  147. Frame rate                               : 0.267 FPS
  148. Count of elements                        : 2071
  149. Stream size                              : 19.5 MiB (0%)
  150. Title                                    : French (Parisian)
  151. Language                                 : French
  152. Default                                  : No
  153. Forced                                   : No
  154. Text #7
  155. ID                                       : 10
  156. Format                                   : PGS
  157. Muxing mode                              : zlib
  158. Codec ID                                 : S_HDMV/PGS
  159. Codec ID/Info                            : Picture based subtitle format used on BDs/HD-DVDs
  160. Duration                                 : 2 h 9 min
  161. Bit rate                                 : 28.2 kb/s
  162. Frame rate                               : 0.251 FPS
  163. Count of elements                        : 1946
  164. Stream size                              : 26.1 MiB (0%)
  165. Title                                    : German
  166. Language                                 : German
  167. Default                                  : No
  168. Forced                                   : No
  169. Text #8
  170. ID                                       : 11
  171. Format                                   : PGS
  172. Muxing mode                              : zlib
  173. Codec ID                                 : S_HDMV/PGS
  174. Codec ID/Info                            : Picture based subtitle format used on BDs/HD-DVDs
  175. Duration                                 : 2 h 2 min
  176. Bit rate                                 : 24.0 kb/s
  177. Frame rate                               : 0.295 FPS
  178. Count of elements                        : 2170
  179. Stream size                              : 21.1 MiB (0%)
  180. Title                                    : Portuguese (Brazilian)
  181. Language                                 : Portuguese
  182. Default                                  : No
  183. Forced                                   : No
  184. Text #9
  185. ID                                       : 12
  186. Format                                   : PGS
  187. Muxing mode                              : zlib
  188. Codec ID                                 : S_HDMV/PGS
  189. Codec ID/Info                            : Picture based subtitle format used on BDs/HD-DVDs
  190. Duration                                 : 2 h 2 min
  191. Bit rate                                 : 24.6 kb/s
  192. Frame rate                               : 0.322 FPS
  193. Count of elements                        : 2366
  194. Stream size                              : 21.6 MiB (0%)
  195. Title                                    : Spanish (Castilian)
  196. Language                                 : Spanish
  197. Default                                  : No
  198. Forced                                   : No
  199. Text #10
  200. ID                                       : 13
  201. Format                                   : PGS
  202. Muxing mode                              : zlib
  203. Codec ID                                 : S_HDMV/PGS
  204. Codec ID/Info                            : Picture based subtitle format used on BDs/HD-DVDs
  205. Duration                                 : 2 h 2 min
  206. Bit rate                                 : 23.9 kb/s
  207. Frame rate                               : 0.297 FPS
  208. Count of elements                        : 2184
  209. Stream size                              : 21.0 MiB (0%)
  210. Title                                    : Spanish (Latin American)
  211. Language                                 : Spanish
  212. Default                                  : No
  213. Forced                                   : No
  214. Menu
  215. 00:00:00.000                             : en:1. The Wolf Hunter
  216. 00:02:46.875                             : en:2. Crossing the Volga
  217. 00:09:47.796                             : en:3. Suicide Charge
  218. 00:15:11.369                             : en:4. Five Bullets
  219. 00:22:09.995                             : en:5. Stalin\''s Envoy
  220. 00:34:13.218                             : en:6. Major Konig
  221. 00:37:08.268                             : en:7. The Department Store
  222. 00:46:18.818                             : en:8. Kruschev\''s Menace
  223. 00:50:44.792                             : en:9. Steel Teeth
  224. 00:56:05.612                             : en:10. Koulikov\''s Death
  225. 01:02:40.840                             : en:11. Tania\''s Parents
  226. 01:08:24.017                             : en:12. The Tractor Factory
  227. 01:16:46.769                             : en:13. The Mirror Effect
  228. 01:22:36.493                             : en:14. Intimacy
  229. 01:29:49.593                             : en:15. Sacha\''s Risk
  230. 01:35:51.996                             : en:16. Among the Dead
  231. 01:42:05.077                             : en:17. The Young Cobbler\''s Fate
  232. 01:55:02.395                             : en:18. Danilov\''s Remorse
  233. 01:57:27.249                             : en:19. Duel
  234. 02:01:20.231                             : en:20. Victory
复制代码



Hao8k.cn提示您 点击下方附件名称 即可开始下载

兵临城下 Enemy.at.the.Gates.2001.REMASTERED.1080p.BluRay.x264.TrueHD.5.1-FGT 14.42GB

Enemy.at.the.Gates.2001.REMASTERED.1080p.BluRay.x264.TrueHD.5.1-FGT.torrent ( 18.68 KB )

回复

使用道具 举报

全部回复3 显示全部楼层
Sidetoyou 发表于 2022-9-4 00:32:11 | 显示全部楼层
感谢分享
回复

使用道具 举报

alanwu79 发表于 2022-9-8 11:58:45 | 显示全部楼层
经典影片,下来看看,谢谢分享
回复

使用道具 举报

杨小云 发表于 6 天前 | 显示全部楼层
不错不错,感谢分享,感激不尽。。。
回复

使用道具 举报

声明:您在社区发表的所有信息仅代表用户个人观点,与本网站立场无关,希望各位烧友理性发言,不发表违法国家法律禁止的话题。

您需要登录后才可以回帖 登录 | 立即注册

本版积分规则

开通会员 每日签到 返回顶部 返回列表