开启左侧

[喜剧片] 败家仔[粤语音轨/简繁英字幕].The.Prodigal.Son.1981.BluRay.1080p.DTS-HD.MA.1.0.x265.10bit-ALT 11.90GB

Hao8k资源组 发表于 2022-8-8 10:07:41 | 显示全部楼层 |阅读模式

马上注册 Hao8k.cn ,获得更好的体验,让你轻松玩转Hao8k

您需要 登录 才可以下载或查看,没有帐号?立即注册

x
62eb346b1c8de.png


标  题 败家仔
译  名 The Prodigal Son
片  名 敗家仔
年  代 1981
产  地 中国香港
类  别 喜剧 / 动作
语  言 粤语
上映日期 1981-12-22
IMDb评分 7.4/10 (3115人评价)
豆瓣评分 7.7/10 (6476人评价)
片  长 104分钟
导  演 洪金宝 Sammo Hung Kam-Bo
编  剧 黄炳耀 Barry Wong
       洪金宝 Sammo Hung Kam-Bo
       王晶 Jing Wong
演  员 元彪 Biao Yuen
       林正英 Ching-Ying Lam
       陈勋奇 Frankie Chan
       洪金宝 Sammo Hung Kam-Bo
       陈龙 Peter Chan Lung
       钟发 Fat Chung
       狄威 Dick Wei
       午马 Wu Ma
       陈治良 Frankie Chin
       李海生 Hoi Sang Lee
       田俊 James Tien Chun
       刘秋生 Chau Sang Lau
       钱月笙 Yuet Sang Chin
       丁羽 Yu Ting
       李文泰 Wen Tai Li
       林静 Ching Lin
       萧玉 Hsiao Yu
       元武 Wu Yuan
       彭润祥 Yun-chiang Peng
       谭镇渡 Tony Tam Chun-To
       张照 Hsi Chang
       石岗 Sek Gong
        
标  签 动作 / 洪金宝 / 香港 / 林正英 / 元彪 / 香港电影 / 武打 / 喜剧

简  介

梁赞(元彪 饰)是梁家九代单传的独自,自小热爱习武。为了发展儿子的爱好,梁赞的父亲从江湖上重金聘请了各路名师与梁赞过招。然而,这些老师们早就被梁赞的父亲收买,在比武之时他们假装战败,使得梁赞自认为功夫天下无敌。                                                                      某日,梁赞遇见了梁二娣,在比试的过程中,梁赞输得一败涂地,才知道自己的真实水平,遂拜梁二娣为师,习得了短桥泳春,之后又受梁二娣师兄的真传,领悟了长桥泳春。一番勤学苦练之后,梁赞的武功果然大大提高,他返回了佛山,开设医馆施药济贫,某日,王爷的义子倪飞拜访想要同梁赞过招,王爷害怕义子受伤,竟然率先派出了刺客暗杀梁赞。

影片参数
  1. ##### MediaInfo ######
  2. General
  3. Unique ID                                : 82238949117920910507031343771089385748 (0x3DDEA53D878717FF0A4D83C425803914)
  4. Complete name                            : The.Prodigal.Son.1981.BluRay.1080p.DTS-HD.MA.1.0.x265.10bit-ALT.mkv
  5. Format                                   : Matroska
  6. Format version                           : Version 4
  7. File size                                : 11.9 GiB
  8. Duration                                 : 1 h 44 min
  9. Overall bit rate mode                    : Variable
  10. Overall bit rate                         : 16.3 Mb/s
  11. Encoded date                             : UTC 2022-02-25 04:02:30
  12. Writing application                      : mkvmerge v49.0.0 (''Sick Of Losing Soulmates'') 64-bit
  13. Writing library                          : libebml v1.4.0 + libmatroska v1.6.1
  14. Video
  15. ID                                       : 1
  16. Format                                   : HEVC
  17. Format/Info                              : High Efficiency Video Coding
  18. Format profile                           : Main [email protected]@High
  19. Codec ID                                 : V_MPEGH/ISO/HEVC
  20. Duration                                 : 1 h 44 min
  21. Bit rate                                 : 15.7 Mb/s
  22. Width                                    : 1 920 pixels
  23. Height                                   : 804 pixels
  24. Display aspect ratio                     : 2.40:1
  25. Frame rate mode                          : Constant
  26. Frame rate                               : 23.976 (24000/1001/53875) FPS
  27. Color space                              : YUV
  28. Chroma subsampling                       : 4:2:0
  29. Bit depth                                : 10 bits
  30. Bits/(Pixel*Frame)                       : 0.425
  31. Stream size                              : 11.5 GiB (97%)
  32. Title                                    : HEVC, [email protected]@High, 24/1.001 fps @ 15742 kbps
  33. Writing library                          : x265 3.4+14-gd419c7152:[Windows][GCC 10.2.0][64 bit] 10bit
  34. Encoding settings                        : cpuid=538751049583 / frame-threads=2 / numa-pools=4 / wpp / pmode / pme / no-psnr / no-ssim / log-level=2 / input-csp=1 / input-res=1920x804 / interlace=0 / total-frames=150570 / level-idc=51 / high-tier=1 / uhd-bd=0 / ref=5 / no-allow-non-conformance / no-repeat-headers / annexb / no-aud / no-hrd / info / hash=0 / no-temporal-layers / open-gop / min-keyint=24 / keyint=240 / gop-lookahead=0 / bframes=6 / b-adapt=2 / b-pyramid / bframe-bias=0 / rc-lookahead=40 / lookahead-slices=0 / NTM4NzU=uuDQuD2mJt9fsCf / scenecut=40 / hist-scenecut=0 / radl=0 / no-splice / no-intra-refresh / ctu=32 / min-cu-size=8 / no-rect / no-amp / max-tu-size=32 / tu-inter-depth=3 / tu-intra-depth=3 / limit-tu=4 / rdoq-level=2 / dynamic-rd=0.00 / no-ssim-rd / signhide / no-tskip / nr-intra=0 / nr-inter=0 / no-constrained-intra / no-strong-intra-smoothing / max-merge=4 / limit-refs=1 / limit-modes / me=3 / subme=4 / merange=25 / temporal-mvp / no-frame-dup / no-hme / weightp / weightb / no-analyze-src-pics / deblock=-3:-3 / no-sao / no-sao-non-deblock / rd=6 / selective-sao=0 / no-early-skip / rskip / no-fast-intra / no-tskip-fast / no-cu-lossless / b-intra / no-splitrd-skip / rdpenalty=0 / psy-rd=2.00 / psy-rdoq=1.00 / no-rd-refine / no-lossless / cbqpoffs=0 / crqpoffs=0 / rc=crf / crf=18.5 / qcomp=0.65 / qpstep=4 / stats-write=0 / stats-read=0 / vbv-maxrate=80000 / vbv-bufsize=80000 / vbv-init=0.9 / crf-max=0.0 / crf-min=0.0 / ipratio=1.40 / pbratio=1.30 / aq-mode=2 / aq-strength=0.85 / cutree / zone-count=0 / no-strict-cbr / qg-size=32 / no-rc-grain / qpmax=69 / qpmin=0 / no-const-vbv / sar=1 / overscan=0 / videoformat=5 / range=0 / colorprim=1 / transfer=1 / colormatrix=1 / chromaloc=0 / display-window=0 / cll=0,0 / min-luma=0 / max-luma=1023 / log2-max-poc-lsb=8 / vui-timing-info / vui-hrd-info / slices=1 / no-opt-qp-pps / no-opt-ref-list-length-pps / no-multi-pass-opt-rps / scenecut-bias=0.05 / hist-threshold=0.03 / no-opt-cu-delta-qp / no-aq-motion / no-hdr10 / no-hdr10-opt / no-dhdr10-opt / no-idr-recovery-sei / analysis-reuse-level=0 / analysis-save-reuse-level=0 / analysis-load-reuse-level=0 / scale-factor=0 / refine-intra=0 / refine-inter=0 / refine-mv=1 / refine-ctu-distortion=0 / no-limit-sao / ctu-info=0 / no-lowpass-dct / refine-analysis-type=0 / copy-pic=1 / max-ausize-factor=1.0 / no-dynamic-refine / no-single-sei / no-hevc-aq / no-svt / no-field / qp-adaptation-range=1.00 / no-scenecut-aware-qpconformance-window-offsets / right=0 / bottom=0 / NTM4NzU= / decoder-max-rate=0
  35. Language                                 : English
  36. Default                                  : Yes
  37. Forced                                   : No
  38. Color range                              : Limited
  39. Color primaries                          : BT.709
  40. Transfer characteristics                 : BT.709
  41. Matrix coefficients                      : BT.709
  42. Audio
  43. ID                                       : 2
  44. Format                                   : DTS XLL
  45. Format/Info                              : Digital Theater Systems
  46. Commercial name                          : DTS-HD Master Audio
  47. Codec ID                                 : A_DTS
  48. Duration                                 : 1 h 44 min
  49. Bit rate mode                            : Variable
  50. Bit rate                                 : 441 kb/s
  51. Channel(s)                               : 1 channel
  52. Channel layout                           : C
  53. Sampling rate                            : 48.0 kHz
  54. Frame rate                               : 93.750 FPS (512 SPF)
  55. Bit depth                                : 16 bits
  56. Compression mode                         : Lossless
  57. Stream size                              : 330 MiB (3%)
  58. Title                                    : Cantonese DTS-HD Master Audio 1.0 @ 442 kbps
  59. Language                                 : Chinese
  60. Default                                  : Yes
  61. Forced                                   : No
  62. Text #1
  63. ID                                       : 3
  64. Format                                   : PGS
  65. Codec ID                                 : S_HDMV/PGS
  66. Codec ID/Info                            : Picture based subtitle format used on BDs/HD-DVDs
  67. Duration                                 : 1 h 42 min
  68. Bit rate                                 : 49.3 kb/s
  69. Count of elements                        : 2788
  70. Stream size                              : 36.3 MiB (0%)
  71. Title                                    : Eng/SUP
  72. Language                                 : English
  73. Default                                  : No
  74. Forced                                   : No
  75. Text #2
  76. ID                                       : 4
  77. Format                                   : PGS
  78. Codec ID                                 : S_HDMV/PGS
  79. Codec ID/Info                            : Picture based subtitle format used on BDs/HD-DVDs
  80. Duration                                 : 1 h 42 min
  81. Bit rate                                 : 20.3 kb/s
  82. Count of elements                        : 2646
  83. Stream size                              : 14.9 MiB (0%)
  84. Title                                    : Chs/SUP  简体
  85. Language                                 : Chinese
  86. Default                                  : Yes
  87. Forced                                   : No
  88. Text #3
  89. ID                                       : 5
  90. Format                                   : PGS
  91. Codec ID                                 : S_HDMV/PGS
  92. Codec ID/Info                            : Picture based subtitle format used on BDs/HD-DVDs
  93. Duration                                 : 1 h 42 min
  94. Bit rate                                 : 20.9 kb/s
  95. Count of elements                        : 2646
  96. Stream size                              : 15.4 MiB (0%)
  97. Title                                    : Cht/SUP  繁体
  98. Language                                 : Chinese
  99. Default                                  : No
  100. Forced                                   : No
  101. Menu
  102. 00:00:00.000                             : en:第 01 章
  103. 00:09:33.823                             : en:第 02 章
  104. 00:19:43.891                             : en:第 03 章
  105. 00:29:45.701                             : en:第 04 章
  106. 00:39:26.656                             : en:第 05 章
  107. 00:49:00.688                             : en:第 06 章
  108. 01:02:22.989                             : en:第 07 章
  109. 01:10:33.729                             : en:第 08 章
  110. 01:17:17.007                             : en:第 09 章
  111. 01:28:37.896                             : en:第 10 章
  112. 01:38:19.519                             : en:第 11 章
复制代码


62eb34419df30.png


62eb3447e5521.png













推荐请使用qBittorrent,utorrent,transmission等标准BT软件下载!以获取最快速度。拜托保种!



Hao8k.cn提示您 点击下方附件名称 即可开始下载

败家仔[粤语音轨/简繁英字幕].The.Prodigal.Son.1981.BluRay.1080p.DTS-HD.MA.1.0.x265.10bit-ALT 11.90GB

败家仔[粤语音轨 简繁英字幕].The.Prodigal.Son.1981.BluRay.1080p.DTS-HD.MA.1.0.x26.torrent ( 30.73 KB )

回复

使用道具 举报

全部回复0 显示全部楼层

声明:您在社区发表的所有信息仅代表用户个人观点,与本网站立场无关,希望各位烧友理性发言,不发表违法国家法律禁止的话题。

您需要登录后才可以回帖 登录 | 立即注册

本版积分规则

联系客服 关注微信 下载APP 返回顶部 返回列表