开启左侧

[喜剧片] 贝多芬小姐的启蒙[中文字幕].The.Opening.of.Misty.Beethoven.1976.BluRay.1080p.x265.10bit-MiniHD 4.09GB

 
Hao8k资源组 发表于 2022-7-23 21:24:07 | 显示全部楼层 |阅读模式

马上注册 Hao8k.cn ,获得更好的体验,让你轻松玩转Hao8k

您需要 登录 才可以下载或查看,没有帐号?立即注册

x
cf54f6f1f99062491381177d10461373.jpeg


标  题 贝多芬小姐的启蒙
译  名 Misty Beethoven
片  名 The Opening of Misty Beethoven
年  代 1976
产  地 美国
类  别 喜剧 / 爱情 / 情色
语  言 英语
上映日期 1976年11月15日
IMDb评分 6.8/10 (1286人评价)
豆瓣评分 6.9/10 (1518人评价)
片  长 分钟
导  演 拉德利·梅茨格
编  剧 拉德利·梅茨格
演  员 康斯妲丝·茉莉
       Jamie Gillis
       Jacqueline Beudant
       Gloria Leonard
       Terri Hall

简  介

Expensive, extravagent, ejaculatory sex film about a girl being transformed from a street hooker to the darling of the jet set.

影片参数
  1. ##### MediaInfo ######
  2. General
  3. Unique ID                                : 159751312297901125758335008384010453621 (0x782EFBCD45E7E05660ECDBADD0F08275)
  4. Complete name                            : The.Opening.of.Misty.Beethoven.1976.BluRay.1080p.x265.10bit-MiniHD.mkv
  5. Format                                   : Matroska
  6. Format version                           : Version 4
  7. File size                                : 4.09 GiB
  8. Duration                                 : 1 h 24 min
  9. Overall bit rate                         : 6 908 kb/s
  10. Encoded date                             : UTC 2018-10-25 02:55:55
  11. Writing application                      : mkvmerge v25.0.0 (''Prog Noir'') 64-bit
  12. Writing library                          : libebml v1.3.6 + libmatroska v1.4.9
  13. Video
  14. ID                                       : 1
  15. Format                                   : HEVC
  16. Format/Info                              : High Efficiency Video Coding
  17. Format profile                           : Main [email protected]@Main
  18. Codec ID                                 : V_MPEGH/ISO/HEVC
  19. Duration                                 : 1 h 24 min
  20. Bit rate                                 : 6 262 kb/s
  21. Width                                    : 1 920 pixels
  22. Height                                   : 1 080 pixels
  23. Display aspect ratio                     : 16:9
  24. Frame rate mode                          : Constant
  25. Frame rate                               : 23.976 (24000/1001/53875) FPS
  26. Color space                              : YUV
  27. Chroma subsampling                       : 4:2:0
  28. Bit depth                                : 10 bits
  29. Bits/(Pixel*Frame)                       : 0.126
  30. Stream size                              : 3.71 GiB (91%)
  31. Writing library                          : x265 2.8+1-478bfe2b7673:[Windows][GCC 7.3.0][64 bit] 10bit
  32. Encoding settings                        : cpuid=538751111039 / frame-threads=4 / numa-pools=16 / wpp / no-pmode / no-pme / no-psnr / no-ssim / log-level=2 / input-csp=1 / input-res=1920x1080 / interlace=0 / total-frames=121862 / level-idc=0 / high-tier=1 / uhd-bd=0 / ref=5 / no-allow-non-conformance / no-repeat-headers / annexb / no-aud / no-hrd / info / hash=0 / no-temporal-layers / no-open-gop / min-keyint=1 / keyint=360 / gop-lookahead=0 / bframes=8 / b-adapt=2 / b-pyramid / bframe-bias=0 / rc-lookahead=60 / lookahead-slices=4 / NTM4NzU=uuDQuD2mJt9fsCf / scenecut=40 / radl=0 / no-intra-refresh / ctu=32 / min-cu-size=8 / rect / no-amp / max-tu-size=16 / tu-inter-depth=2 / tu-intra-depth=2 / limit-tu=4 / rdoq-level=1 / dynamic-rd=0.00 / no-ssim-rd / signhide / no-tskip / nr-intra=0 / nr-inter=0 / no-constrained-intra / no-strong-intra-smoothing / max-merge=3 / limit-refs=2 / limit-modes / me=3 / subme=5 / merange=25 / temporal-mvp / weightp / weightb / no-analyze-src-pics / deblock=-1:-1 / no-sao / no-sao-non-deblock / rd=4 / no-early-skip / rskip / no-fast-intra / no-tskip-fast / no-cu-lossless / b-intra / no-splitrd-skip / rdpenalty=1 / psy-rd=2.00 / psy-rdoq=5.00 / no-rd-refine / no-lossless / cbqpoffs=-2 / crqpoffs=-2 / rc=crf / crf=21.0 / qcomp=0.65 / qpstep=4 / stats-write=0 / stats-read=0 / ipratio=1.40 / pbratio=1.30 / aq-mode=1 / aq-strength=0.90 / cutree / zone-count=0 / no-strict-cbr / qg-size=16 / no-rc-grain / qpmax=69 / qpmin=0 / no-const-vbv / sar=1 / overscan=0 / videoformat=5 / range=0 / colorprim=1 / transfer=2 / colormatrix=2 / chromaloc=0 / display-window=0 / max-cll=0,0 / min-luma=0 / max-luma=1023 / log2-max-poc-lsb=8 / vui-timing-info / vui-hrd-info / slices=1 / no-opt-qp-pps / no-opt-ref-list-length-pps / no-multi-pass-opt-rps / scenecut-bias=0.05 / no-opt-cu-delta-qp / no-aq-motion / no-hdr / no-hdr-opt / no-dhdr10-opt / no-idr-recovery-sei / analysis-reuse-level=5 / scale-factor=0 / refine-intra=0 / refine-inter=0 / refine-mv=0 / no-limit-sao / ctu-info=0 / no-lowpass-dct / refine-mv-type=0 / copy-pic=1 / max-ausize-factor=1.0 / no-dynamic-refine / no-single-sei
  33. Default                                  : Yes
  34. Forced                                   : No
  35. Color range                              : Limited
  36. Color primaries                          : BT.709
  37. Audio
  38. ID                                       : 2
  39. Format                                   : AC-3
  40. Format/Info                              : Audio Coding 3
  41. Commercial name                          : Dolby Digital
  42. Codec ID                                 : A_AC3
  43. Duration                                 : 1 h 24 min
  44. Bit rate mode                            : Constant
  45. Bit rate                                 : 640 kb/s
  46. Channel(s)                               : 6 channels
  47. Channel layout                           : L R C LFE Ls Rs
  48. Sampling rate                            : 48.0 kHz
  49. Frame rate                               : 31.250 FPS (1536 SPF)
  50. Compression mode                         : Lossy
  51. Stream size                              : 388 MiB (9%)
  52. Language                                 : English
  53. Service kind                             : Complete Main
  54. Default                                  : Yes
  55. Forced                                   : No
  56. Text
  57. ID                                       : 3
  58. Format                                   : PGS
  59. Muxing mode                              : zlib
  60. Codec ID                                 : S_HDMV/PGS
  61. Codec ID/Info                            : Picture based subtitle format used on BDs/HD-DVDs
  62. Duration                                 : 1 h 22 min
  63. Bit rate                                 : 11.2 kb/s
  64. Count of elements                        : 1197
  65. Stream size                              : 6.57 MiB (0%)
  66. Language                                 : Chinese
  67. Default                                  : Yes
  68. Forced                                   : No
复制代码


98db50945f3f3e95ecb330567dd407b5.jpeg















推荐请使用qBittorrent,utorrent,transmission等标准BT软件下载!以获取最快速度。拜托保种!



Hao8k.cn提示您 点击下方附件名称 即可开始下载

贝多芬小姐的启蒙[中文字幕].The.Opening.of.Misty.Beethoven.1976.BluRay.1080p.x265.10bit-MiniHD 4.09GB

贝多芬小姐的启蒙[中文字幕].The.Opening.of.Misty.Beethoven.1976.BluRay.1080p.x265.torrent ( 11.29 KB )

回复

使用道具 举报

全部回复68 显示全部楼层
火焰中的派大星 发表于 2023-1-15 00:16:53 | 显示全部楼层
乌拉弄理解
回复

使用道具 举报

团里隐患 发表于 2023-1-19 23:19:05 | 显示全部楼层
谢谢群主,感谢分享
回复

使用道具 举报

杨小云 发表于 2023-1-20 15:45:41 | 显示全部楼层
不错不错,感谢分享,感激不尽。。。
回复

使用道具 举报

atlas319 发表于 2023-3-4 11:38:04 | 显示全部楼层
感谢楼主:lol:lol
回复

使用道具 举报

TYC 发表于 2023-3-4 13:52:03 | 显示全部楼层
噢耶,厉害
回复

使用道具 举报

miaomiqo 发表于 2023-3-4 14:12:55 | 显示全部楼层
谢谢分享
回复

使用道具 举报

ICEMAN 发表于 2023-3-7 22:36:43 | 显示全部楼层
怎么下载不了
回复

使用道具 举报

dvdriper 发表于 2023-3-14 20:51:09 | 显示全部楼层
谢谢群主,感谢分享
回复

使用道具 举报

qqqqqq001 发表于 2023-3-20 01:23:56 | 显示全部楼层
向外求求而不得,向内求生生不息
回复

使用道具 举报

声明:您在社区发表的所有信息仅代表用户个人观点,与本网站立场无关,希望各位烧友理性发言,不发表违法国家法律禁止的话题。

您需要登录后才可以回帖 登录 | 立即注册

本版积分规则

开通会员 每日签到 返回顶部 返回列表