游客您好
第三方账号登陆
  • 点击联系客服

    在线时间:8:00-16:00

    电子邮件

    lanniao@4kpro.cn
  • 扫描二维码

    访问小程序

  • 扫描二维码

    访问手机版

推荐阅读
Hao8k资源组
未知星球 | 未知职业
  • 关注0
  • 粉丝1
  • 帖子59628
精选帖子
开启左侧

忌日快乐[共2部合集][简繁英字幕].Happy.Death.Day.2017-2019.UHD.BluRay.2160p.DTS-HD.MA5.1.x265.10bit.HDR-ALT 25.61GB

[复制链接]
Hao8k资源组 发表于 2022-6-29 12:06:27 | 显示全部楼层 |阅读模式 打印 上一主题 下一主题
画质标准:
10bit.HDR 2160p 
音质编码:
DTS-HD Master Audio 
电影声道:
5.1声道


电影封面

马上注册 Hao8k.cn ,获得更好的体验,让你轻松玩转Hao8k

您需要 登录 才可以下载或查看,没有帐号?立即注册

x
005025ckuwkwy6wyeknrdu.jpeg


译  名 忌日快乐 / 死日快乐 / 吓到半死 / 死亡无限LOOP(港) / Again / Half to Death / Happy Birthdead / 生日惊魂
  9月18日星期一,是放纵张扬的高校女孩泰莉·格尔布曼(杰西卡·罗德 Jessica Rothe 饰)的生日,同时也是她亡母的生日。前一晚她烂醉如泥,睡在了有一面之缘的男生卡特的房间。她醒来后回到宿舍,匆匆赶去上课。夜幕降临,姐妹们为她准备了惊喜的生日派对。谁知在赶赴派对的途中,泰 莉遭到蒙面男的杀害。吊诡的是,当她再度醒来时,发现自己又回到了9月18日的早上,十数个小时前经历的一切又不得不重新经历一遍,其中包括被杀的遭遇。就这样,抓狂的泰莉不断尝试改变命运,又一次次被神秘男人所杀害。                                    
                                她仿佛落入了永世轮回的诅咒之中,无法超生……
获奖情况 (共1项)
  第4届豆瓣电影年度榜单 (2017)
  评分最高的恐怖片(提名)




影片参数
  1. 合集文件列表:

  2. 1.Happy.Death.Day.2U.2019.UHD.BluRay.2160p.DTS-HD.MA5.1.x265.10bit.HDR-ALT.mkv 12.94GB

  3. 2.Happy.Death.Day.2017.UHD.BluRay.2160p.DTS-HD.MA5.1.x265.10bit.HDR-ALT.mkv 12.68GB

复制代码



影片参数
  1. ##### MediaInfo ######
  2. General
  3. Unique ID                                : 126304935630076279716174758344957188041 (0x5F05721DAE2D3A3FF81E03A638C557C9)
  4. Complete name                            : Happy.Death.Day.2U.2019.UHD.BluRay.2160p.DTS-HD.MA5.1.x265.10bit.HDR-ALT.mkv
  5. Format                                   : Matroska
  6. Format version                           : Version 4
  7. File size                                : 12.9 GiB
  8. Duration                                 : 1 h 39 min
  9. Overall bit rate mode                    : Variable
  10. Overall bit rate                         : 18.5 Mb/s
  11. Encoded date                             : UTC 2022-06-04 06:06:11
  12. Writing application                      : mkvmerge v49.0.0 (''Sick Of Losing Soulmates'') 64-bit
  13. Writing library                          : libebml v1.4.0 + libmatroska v1.6.1
  14. Video
  15. ID                                       : 1
  16. Format                                   : HEVC
  17. Format/Info                              : High Efficiency Video Coding
  18. Format profile                           : Main [email protected]@High
  19. HDR format                               : SMPTE ST 2086, HDR10 compatible
  20. Codec ID                                 : V_MPEGH/ISO/HEVC
  21. Duration                                 : 1 h 39 min
  22. Bit rate                                 : 14.3 Mb/s
  23. Width                                    : 3 840 pixels
  24. Height                                   : 1 606 pixels
  25. Display aspect ratio                     : 2.40:1
  26. Frame rate mode                          : Constant
  27. Frame rate                               : 23.976 (24000/1001/53875) FPS
  28. Color space                              : YUV
  29. Chroma subsampling                       : 4:2:0 (Type 2)
  30. Bit depth                                : 10 bits
  31. Bits/(Pixel*Frame)                       : 0.097
  32. Stream size                              : 10.0 GiB (77%)
  33. Title                                    : HEVC, [email protected]@High, 24/1.001 fps @ 14334 kbps
  34. Writing library                          : x265 3.5+36-1f2c8da77:[Windows][GCC 11.2.0][64 bit] 10bit
  35. Encoding settings                        : cpuid=538751111039 / frame-threads=4 / numa-pools=20 / wpp / no-pmode / no-pme / no-psnr / no-ssim / log-level=2 / input-csp=1 / input-res=3840x1606 / interlace=0 / total-frames=143774 / level-idc=51 / high-tier=1 / uhd-bd=0 / ref=4 / no-allow-non-conformance / repeat-headers / annexb / no-aud / no-eob / no-eos / hrd / info / hash=0 / no-temporal-layers / no-open-gop / min-keyint=24 / keyint=240 / gop-lookahead=0 / bframes=8 / b-adapt=2 / b-pyramid / bframe-bias=0 / rc-lookahead=25 / lookahead-slices=0 / NTM4NzU=uuDQuD2mJt9fsCf / scenecut=40 / no-hist-scenecut / radl=0 / no-splice / no-intra-refresh / ctu=64 / min-cu-size=8 / no-rect / no-amp / max-tu-size=32 / tu-inter-depth=3 / tu-intra-depth=3 / limit-tu=4 / rdoq-level=2 / dynamic-rd=0.00 / no-ssim-rd / signhide / no-tskip / nr-intra=0 / nr-inter=0 / no-constrained-intra / no-strong-intra-smoothing / max-merge=4 / limit-refs=1 / limit-modes / me=3 / subme=4 / merange=57 / temporal-mvp / no-frame-dup / no-hme / weightp / weightb / no-analyze-src-pics / deblock=-3:-3 / no-sao / no-sao-non-deblock / rd=6 / selective-sao=0 / no-early-skip / rskip / no-fast-intra / no-tskip-fast / no-cu-lossless / b-intra / no-splitrd-skip / rdpenalty=0 / psy-rd=2.00 / psy-rdoq=1.00 / no-rd-refine / no-lossless / cbqpoffs=-2 / crqpoffs=-2 / rc=crf / crf=18.5 / qcomp=0.65 / qpstep=4 / stats-write=0 / stats-read=0 / vbv-maxrate=160000 / vbv-bufsize=160000 / vbv-init=0.9 / min-vbv-fullness=50.0 / max-vbv-fullness=80.0 / crf-max=0.0 / crf-min=0.0 / ipratio=1.30 / pbratio=1.20 / aq-mode=3 / aq-strength=0.85 / cutree / zone-count=0 / no-strict-cbr / qg-size=32 / no-rc-grain / qpmax=69 / qpmin=0 / no-const-vbv / sar=1 / overscan=0 / videoformat=5 / range=0 / colorprim=9 / transfer=16 / colormatrix=9 / chromaloc=1 / chromaloc-top=2 / chromaloc-bottom=2 / display-window=0 / master-display=G(13250,34500)B(7500,3000)R(34000,16000)WP(15635,16450)L(10000000,50) / cll=962,491 / min-luma=0 / max-luma=1023 / log2-max-poc-lsb=8 / vui-timing-info / vui-hrd-info / slices=1 / no-opt-qp-pps / no-opt-ref-list-length-pps / no-multi-pass-opt-rps / scenecut-bias=0.05 / hist-threshold=0.03 / no-opt-cu-delta-qp / no-aq-motion / hdr10 / hdr10-opt / no-dhdr10-opt / no-idr-recovery-sei / analysis-reuse-level=0 / analysis-save-reuse-level=0 / analysis-load-reuse-level=0 / scale-factor=0 / refine-intra=0 / refine-inter=0 / refine-mv=1 / refine-ctu-distortion=0 / no-limit-sao / ctu-info=0 / no-lowpass-dct / refine-analysis-type=0 / copy-pic=1 / max-ausize-factor=1.0 / no-dynamic-refine / no-single-sei / no-hevc-aq / no-svt / no-field / qp-adaptation-range=1.00 / scenecut-aware-qp=0conformance-window-offsets / right=0 / bottom=0 / NTM4NzU= / decoder-max-rate=0 / no-vbv-live-multi-pass
  36. Language                                 : English
  37. Default                                  : Yes
  38. Forced                                   : No
  39. Color range                              : Limited
  40. Color primaries                          : BT.2020
  41. Transfer characteristics                 : PQ
  42. Matrix coefficients                      : BT.2020 non-constant
  43. Mastering display color primaries        : Display P3
  44. Mastering display luminance              : min: 0.0050 cd/m2, max: 1000 cd/m2
  45. Maximum Content Light Level              : 962 cd/m2
  46. Maximum Frame-Average Light Level        : 491 cd/m2
  47. Audio #1
  48. ID                                       : 2
  49. Format                                   : DTS XLL
  50. Format/Info                              : Digital Theater Systems
  51. Commercial name                          : DTS-HD Master Audio
  52. Codec ID                                 : A_DTS
  53. Duration                                 : 1 h 39 min
  54. Bit rate mode                            : Variable
  55. Bit rate                                 : 3 777 kb/s
  56. Channel(s)                               : 6 channels
  57. Channel layout                           : C L R Ls Rs LFE
  58. Sampling rate                            : 48.0 kHz
  59. Frame rate                               : 93.750 FPS (512 SPF)
  60. Bit depth                                : 24 bits
  61. Compression mode                         : Lossless
  62. Stream size                              : 2.64 GiB (20%)
  63. Title                                    : English DTS-HD Master Audio 5.1 @ 3777 kbps
  64. Language                                 : English
  65. Default                                  : Yes
  66. Forced                                   : No
  67. Audio #2
  68. ID                                       : 3
  69. Format                                   : AC-3
  70. Format/Info                              : Audio Coding 3
  71. Commercial name                          : Dolby Digital
  72. Codec ID                                 : A_AC3
  73. Duration                                 : 1 h 39 min
  74. Bit rate mode                            : Constant
  75. Bit rate                                 : 192 kb/s
  76. Channel(s)                               : 2 channels
  77. Channel layout                           : L R
  78. Sampling rate                            : 48.0 kHz
  79. Frame rate                               : 31.250 FPS (1536 SPF)
  80. Compression mode                         : Lossy
  81. Stream size                              : 137 MiB (1%)
  82. Title                                    : English Dolby Digital Audio 2.0 @ 192 kbps  Commentary
  83. Language                                 : English
  84. Service kind                             : Complete Main
  85. Default                                  : No
  86. Forced                                   : No
  87. Text #1
  88. ID                                       : 4
  89. Format                                   : PGS
  90. Codec ID                                 : S_HDMV/PGS
  91. Codec ID/Info                            : Picture based subtitle format used on BDs/HD-DVDs
  92. Duration                                 : 1 h 37 min
  93. Bit rate                                 : 40.1 kb/s
  94. Count of elements                        : 3326
  95. Stream size                              : 28.0 MiB (0%)
  96. Title                                    : Eng/SUP
  97. Language                                 : English
  98. Default                                  : No
  99. Forced                                   : No
  100. Text #2
  101. ID                                       : 5
  102. Format                                   : PGS
  103. Codec ID                                 : S_HDMV/PGS
  104. Codec ID/Info                            : Picture based subtitle format used on BDs/HD-DVDs
  105. Duration                                 : 1 h 33 min
  106. Bit rate                                 : 35.9 kb/s
  107. Count of elements                        : 1918
  108. Stream size                              : 24.1 MiB (0%)
  109. Title                                    : Chs/SUP  简体
  110. Language                                 : Chinese
  111. Default                                  : Yes
  112. Forced                                   : No
  113. Text #3
  114. ID                                       : 6
  115. Format                                   : PGS
  116. Codec ID                                 : S_HDMV/PGS
  117. Codec ID/Info                            : Picture based subtitle format used on BDs/HD-DVDs
  118. Duration                                 : 1 h 33 min
  119. Bit rate                                 : 36.8 kb/s
  120. Count of elements                        : 1918
  121. Stream size                              : 24.6 MiB (0%)
  122. Title                                    : Cht/SUP  繁体
  123. Language                                 : Chinese
  124. Default                                  : No
  125. Forced                                   : No
  126. Text #4
  127. ID                                       : 7
  128. Format                                   : PGS
  129. Codec ID                                 : S_HDMV/PGS
  130. Codec ID/Info                            : Picture based subtitle format used on BDs/HD-DVDs
  131. Duration                                 : 1 h 33 min
  132. Bit rate                                 : 60.7 kb/s
  133. Count of elements                        : 1918
  134. Stream size                              : 40.6 MiB (0%)
  135. Title                                    : Chs/SUP  简英双语
  136. Language                                 : Chinese
  137. Default                                  : No
  138. Forced                                   : No
  139. Text #5
  140. ID                                       : 8
  141. Format                                   : PGS
  142. Codec ID                                 : S_HDMV/PGS
  143. Codec ID/Info                            : Picture based subtitle format used on BDs/HD-DVDs
  144. Duration                                 : 1 h 33 min
  145. Bit rate                                 : 61.5 kb/s
  146. Count of elements                        : 1918
  147. Stream size                              : 41.2 MiB (0%)
  148. Title                                    : Cht/SUP  繁英双语
  149. Language                                 : Chinese
  150. Default                                  : No
  151. Forced                                   : No
  152. Menu
  153. 00:00:00.000                             : en:第 01 章
  154. 00:07:57.268                             : en:第 02 章
  155. 00:16:01.419                             : en:第 03 章
  156. 00:24:21.669                             : en:第 04 章
  157. 00:34:01.581                             : en:第 05 章
  158. 00:42:05.773                             : en:第 06 章
  159. 00:49:50.237                             : en:第 07 章
  160. 00:57:19.061                             : en:第 08 章
  161. 01:06:25.523                             : en:第 09 章
  162. 01:13:20.479                             : en:第 10 章
  163. 01:20:57.728                             : en:第 11 章
  164. 01:27:36.501                             : en:第 12 章
复制代码


005025ormuuo9p5m6dced9.jpeg

005026u4q4zbph4hpjvppu.jpeg

005026ns88out00xyli0s4.jpeg

005026wzbia6svcihsva7a.jpeg

005026pjt5q5ff7bdixtzt.jpeg

005026i9qe229oofezqesz.jpeg



Hao8k.cn提示您 点击下方附件名称 即可开始下载

忌日快乐[共2部合集][简繁英字幕].Happy.Death.Day.2017-2019.UHD.BluRay.2160p.DTS-HD.MA5.1.x265.10bit.HDR-ALT 25.61GB

忌日快乐[共2部合集][简繁英字幕].Happy.Death.Day.2017-2019.UHD.BluRay.2160p.DTS-H.torrent (65.13 KB, 下载次数: 0)
回复

使用道具 举报

您需要登录后才可以回帖 登录 | 立即注册

本版积分规则

蓝光电影网内容部分由用户自主分享和转载自互联网,转载目的在于传递更多信息,并不代表本网赞同其观点和对其真实性负责。 如有侵权、违反国家法律政策行为,请联系我们,我们会第一时间及时清除和处理!
移动端
  • 扫码访问小程序
  • 扫码访问手机端

Powered by 蓝光电影网 X3.4© 2021-2022 Hao8k.cn |网站地图