游客您好
第三方账号登陆
  • 点击联系客服

    在线时间:8:00-16:00

    电子邮件

    lanniao@4kpro.cn
  • 扫描二维码

    访问小程序

  • 扫描二维码

    访问手机版

推荐阅读
Hao8k资源组
未知星球 | 未知职业
  • 关注0
  • 粉丝1
  • 帖子59628
精选帖子
开启左侧

黄飞鸿系列[共4部合集][国语音轨/简繁英字幕].Once.Upon.a.Time.In.China.Collections.2160p.WEB-DL.DDP.5.1.HDR.H.265-CTRLWEB 79.66GB

[复制链接]
Hao8k资源组 发表于 2022-6-29 12:04:39 | 显示全部楼层 |阅读模式 打印 上一主题 下一主题
画质标准:
WEB-DL 2160p 
音质编码:
其它DDP 
电影声道:
5.1声道


电影封面

马上注册 Hao8k.cn ,获得更好的体验,让你轻松玩转Hao8k

您需要 登录 才可以下载或查看,没有帐号?立即注册

x
004245wqgp1p5dmdppd8wm.jpeg


译  名 黄飞鸿 / 黄飞鸿之壮志凌云 / 武状元黄飞鸿 / Once Upon a Time in China / Wong Fei-Hung
       任世官 Shi-Kwan Yen
       熊欣欣 Xinxin Xiong
       午马 Wu Ma
       秦贵宝 Kwai Po Chun
       黄子扬 Chi Yeung Wong
       布鲁斯·方丹 Bruce Fontaine
       江全 Chuen Chiang
       袁信义 Shun-Yee Yuen
       袁祥仁 Cheung-Yan Yuen
       麦克·里德 Mike Leeder
       冯雪瑞 Xuerui Feng
       任达华 Simon Yam
       许思敏 Si Man Hui
       石坚 Kien Shih
       刘洵 Shun Lau
       岑潜波 Chien-Po Tsen
       余袁稳 Yu Yuen Yin
       林富伟 Fu-wai Lam
       朱嘉懿 Julia Chu
       徐克 Hark Tsui
       黄霑 James Wong
       戴乐民 Romeo Díaz
       陈沛佳 Wilson Chan
       周伟权 Wai-kuen Chow
       黄岳泰 Arthur Wong
       黄仲标 Bill Wong
       林国华 Ardy Lam
       钟志文 David Chung
       陈东村 Tung-Chuen Chan
       麦子善 Marco Mak
       奚仲文 Chung-Man Hai
       余家安 Bruce Yu
       黄巧蓉 Hau-yung Wong
       黎继强 Kai Keung Lai
       霍永富 Marcus Fox
       邹文怀 Raymond Chow
       周少龙 Shao Lung Chou
       鄒林 Lam Chow
       罗礼贤 Bruce Law
简  介

清朝末年,曾任黑旗水军教头兼民团总教练的广东佛山武师黄飞鸿(李连杰)常在宝芝林教人练武,期望借此自强救国,可是眼见政府苟且偷生洋人横行霸道,他渐渐领悟到单凭武术不足以使民众从苦海中脱离,开始努力找寻其它救国出路。梅县梁宽(元彪)在戏院结识黄飞鸿的恋人十三姨(关之琳)后与黄飞鸿出生种种误会,终投武夫严振东门下与黄飞鸿成为敌手。                                    
                                严振东与洋人连手鼓吹美国是金山世界,将包括十三姨在内的大批中国妇女骗掳上洋船,梁宽此时幡然醒悟,明白黄飞鸿是友非敌,在他的帮助下,黄飞鸿开始与洋人及其爪牙展开浴血奋战。
获奖情况 (共9项)
  第28届台北金马影展 (1991)
  金马奖 最佳原创配乐
  第11届香港电影金像奖 (1992)
  最佳电影(提名)
  最佳导演
   └──徐克
  最佳男配角(提名)
   └──张学友
  最佳摄影(提名)
  最佳剪接
   └──麦子善
  最佳美术指导(提名)
   └──奚仲文
  最佳动作设计
  最佳原创电影音乐
   └──黄霑




影片参数
  1. 合集文件列表:

  2. 1.Once.Upon.a.Time.In.China.2.1992.2160p.WEB-DL.AAC.2.0.HDR.H.265-CTRLWEB.mkv 19.51GB

  3. 2.Once.Upon.a.Time.In.China.3.1993.2160p.WEB-DL.DD.5.1.HDR.H.265-CTRLWEB.mkv 19.56GB

  4. 3.Once.Upon.a.Time.In.China.1991.2160p.WEB-DL.AAC.2.0.HDR.H.265-CTRLWEB.mkv 23.31GB

  5. 4.Once.Upon.a.Time.In.China.and.America.1997.2160p.WEB-DL.DD.5.1.HDR.H.265-CTRLWEB.mkv 17.28GB

复制代码



影片参数
  1. ##### MediaInfo ######
  2. General
  3. Unique ID                                : 127860356522356104018656603081319687502 (0x6031024968E3078BFE3F38F83684A54E)
  4. Complete name                            : Once.Upon.a.Time.In.China.2.1992.2160p.WEB-DL.AAC.2.0.HDR.H.265-CTRLWEB.mkv
  5. Format                                   : Matroska
  6. Format version                           : Version 4
  7. File size                                : 19.5 GiB
  8. Duration                                 : 1 h 52 min
  9. Overall bit rate                         : 24.8 Mb/s
  10. Encoded date                             : UTC 2022-06-02 09:42:01
  11. Writing application                      : mkvmerge v65.0.0 (''Too Much'') 64-bit
  12. Writing library                          : libebml v1.4.2 + libmatroska v1.6.4
  13. Video
  14. ID                                       : 1
  15. Format                                   : HEVC
  16. Format/Info                              : High Efficiency Video Coding
  17. Format profile                           : Main [email protected]@High
  18. HDR format                               : SMPTE ST 2086, HDR10 compatible
  19. Codec ID                                 : V_MPEGH/ISO/HEVC
  20. Duration                                 : 1 h 52 min
  21. Bit rate                                 : 24.5 Mb/s
  22. Width                                    : 3 840 pixels
  23. Height                                   : 1 604 pixels
  24. Display aspect ratio                     : 2.40:1
  25. Frame rate mode                          : Constant
  26. Frame rate                               : 24.000 FPS
  27. Color space                              : YUV
  28. Chroma subsampling                       : 4:2:0 (Type 2)
  29. Bit depth                                : 10 bits
  30. Bits/(Pixel*Frame)                       : 0.166
  31. Stream size                              : 19.3 GiB (99%)
  32. Language                                 : English
  33. Default                                  : Yes
  34. Forced                                   : No
  35. Color range                              : Limited
  36. Color primaries                          : BT.2020
  37. Transfer characteristics                 : PQ
  38. Matrix coefficients                      : BT.2020 non-constant
  39. Mastering display color primaries        : BT.2020
  40. Mastering display luminance              : min: 0.0050 cd/m2, max: 1000 cd/m2
  41. Maximum Content Light Level              : 913 cd/m2
  42. Maximum Frame-Average Light Level        : 250 cd/m2
  43. Audio #1
  44. ID                                       : 2
  45. Format                                   : AAC LC
  46. Format/Info                              : Advanced Audio Codec Low Complexity
  47. Codec ID                                 : A_AAC-2
  48. Duration                                 : 1 h 52 min
  49. Bit rate                                 : 144 kb/s
  50. Channel(s)                               : 2 channels
  51. Channel layout                           : L R
  52. Sampling rate                            : 48.0 kHz
  53. Frame rate                               : 46.875 FPS (1024 SPF)
  54. Compression mode                         : Lossy
  55. Stream size                              : 114 MiB (1%)
  56. Language                                 : Chinese
  57. Default                                  : Yes
  58. Forced                                   : No
  59. Audio #2
  60. ID                                       : 3
  61. Format                                   : AAC LC
  62. Format/Info                              : Advanced Audio Codec Low Complexity
  63. Codec ID                                 : A_AAC-2
  64. Duration                                 : 1 h 52 min
  65. Bit rate                                 : 157 kb/s
  66. Channel(s)                               : 2 channels
  67. Channel layout                           : L R
  68. Sampling rate                            : 48.0 kHz
  69. Frame rate                               : 46.875 FPS (1024 SPF)
  70. Compression mode                         : Lossy
  71. Stream size                              : 126 MiB (1%)
  72. Language                                 : Chinese
  73. Default                                  : No
  74. Forced                                   : No
  75. Text #1
  76. ID                                       : 4
  77. Format                                   : UTF-8
  78. Codec ID                                 : S_TEXT/UTF8
  79. Codec ID/Info                            : UTF-8 Plain Text
  80. Duration                                 : 1 h 51 min
  81. Bit rate                                 : 43 b/s
  82. Count of elements                        : 1436
  83. Stream size                              : 35.6 KiB (0%)
  84. Title                                    : United Kingdom
  85. Language                                 : English
  86. Default                                  : No
  87. Forced                                   : No
  88. Text #2
  89. ID                                       : 5
  90. Format                                   : UTF-8
  91. Codec ID                                 : S_TEXT/UTF8
  92. Codec ID/Info                            : UTF-8 Plain Text
  93. Duration                                 : 1 h 51 min
  94. Bit rate                                 : 41 b/s
  95. Count of elements                        : 1436
  96. Stream size                              : 33.8 KiB (0%)
  97. Title                                    : Simplified
  98. Language                                 : Chinese
  99. Default                                  : No
  100. Forced                                   : No
  101. Text #3
  102. ID                                       : 6
  103. Format                                   : UTF-8
  104. Codec ID                                 : S_TEXT/UTF8
  105. Codec ID/Info                            : UTF-8 Plain Text
  106. Duration                                 : 1 h 51 min
  107. Bit rate                                 : 41 b/s
  108. Count of elements                        : 1436
  109. Stream size                              : 33.8 KiB (0%)
  110. Title                                    : Traditional
  111. Language                                 : Chinese
  112. Default                                  : No
  113. Forced                                   : No
  114. Text #4
  115. ID                                       : 7
  116. Format                                   : UTF-8
  117. Codec ID                                 : S_TEXT/UTF8
  118. Codec ID/Info                            : UTF-8 Plain Text
  119. Duration                                 : 53 min 20 s
  120. Bit rate                                 : 5 b/s
  121. Count of elements                        : 91
  122. Stream size                              : 2.02 KiB (0%)
  123. Title                                    : Traditional (Forced)
  124. Language                                 : Chinese
  125. Default                                  : Yes
  126. Forced                                   : Yes
  127. Menu
  128. 00:00:00.000                             : en:Chapter 1
  129. 00:12:28.000                             : en:Chapter 2
  130. 00:22:17.750                             : en:Chapter 3
  131. 00:31:00.583                             : en:Chapter 4
  132. 00:39:41.750                             : en:Chapter 5
  133. 00:51:02.583                             : en:Chapter 6
  134. 01:01:32.250                             : en:Chapter 7
  135. 01:09:54.166                             : en:Chapter 8
  136. 01:19:26.125                             : en:Chapter 9
  137. 01:27:06.958                             : en:Chapter 10
  138. 01:35:04.708                             : en:Chapter 11
  139. 01:45:19.500                             : en:Chapter 12
复制代码


004246d8bncnc7bcc2txvk.jpeg

004246g2cq7vavozazqq95.jpeg

004246lelss22ok7obca2o.jpeg

004246h48ty550ypyv8phy.jpeg

004246bohuhl33jzhskirh.jpeg

004246vm1mm200d1sgjxro.jpeg



Hao8k.cn提示您 点击下方附件名称 即可开始下载

黄飞鸿系列[共4部合集][国语音轨/简繁英字幕].Once.Upon.a.Time.In.China.Collections.2160p.WEB-DL.DDP.5.1.HDR.H.265-CTRLWEB 79.66GB

黄飞鸿系列[共4部合集][国语音轨 简繁英字幕].Once.Upon.a.Time.In.China.Collections.torrent (200.47 KB, 下载次数: 0)
回复

使用道具 举报

您需要登录后才可以回帖 登录 | 立即注册

本版积分规则

蓝光电影网内容部分由用户自主分享和转载自互联网,转载目的在于传递更多信息,并不代表本网赞同其观点和对其真实性负责。 如有侵权、违反国家法律政策行为,请联系我们,我们会第一时间及时清除和处理!
移动端
  • 扫码访问小程序
  • 扫码访问手机端

Powered by 蓝光电影网 X3.4© 2021-2022 Hao8k.cn |网站地图