游客您好
第三方账号登陆
  • 点击联系客服

    在线时间:8:00-16:00

    电子邮件

    lanniao@4kpro.cn
  • 扫描二维码

    访问小程序

  • 扫描二维码

    访问手机版

推荐阅读
Hao8k资源组
未知星球 | 未知职业
  • 关注0
  • 粉丝1
  • 帖子59628
精选帖子
开启左侧

纽约大逃亡 Escape.from.New.York.1981.2160p.US.BluRay.x264.8bit.SDR.DTS-HD.MA.TrueHD.7.1.Atmos-SWTYBLZ 58.15GB

[复制链接]
Hao8k资源组 发表于 2022-6-29 12:03:51 | 显示全部楼层 |阅读模式 打印 上一主题 下一主题
画质标准:
8bit.SDR 2160p 
音质编码:
Dolby-Atmos Dolby-TrueHD DTS-HD Master Audio 
电影声道:
7.1声道


电影封面

马上注册 Hao8k.cn ,获得更好的体验,让你轻松玩转Hao8k

您需要 登录 才可以下载或查看,没有帐号?立即注册

x
fbce5d19f537106d8c8c4f766f036d72.jpeg


译  名 纽约大逃亡 / 逃出纽约

简  介

1988年,为了应对不断翻倍的犯罪增长率,联邦将曼哈顿岛改建成一座庞大的监狱,囚犯们被扔到其中自生自灭,纽约城变成了犯罪之城。转眼已是1997年,代号“大卫14”的美国空军一号被美国国家解放阵线劫持,最后坠毁在监狱城内,美国总统独自深陷城中。曾经的空军英雄、功勋特种队员普林斯肯中校(库尔特?拉塞尔 Kurt Russell 饰)由于抢劫银行入狱,政府决定利用普林斯肯潜入监狱城,救出总统。                                    
                                普林斯肯的任务时间只有二十四小时,他在城中找到了自己昔日的战友、如今监狱地下统治者“公爵”的部下瑟翁,他们合作搭救总统,而要面对的是无处不在的疯狂犯人……


影片参数
  1. Video
  2. ID                                       : 1
  3. Format                                   : AVC
  4. Format/Info                              : Advanced Video Codec
  5. Format profile                           : [email protected]
  6. Format settings                          : CABAC / 5 Ref Frames
  7. Format settings, CABAC                   : Yes
  8. Format settings, Reference frames        : 5 frames
  9. Codec ID                                 : V_MPEG4/ISO/AVC
  10. Duration                                 : 1 h 39 min
  11. Bit rate                                 : 75.6 Mb/s
  12. Width                                    : 3 840 pixels
  13. Height                                   : 1 634 pixels
  14. Display aspect ratio                     : 2.35:1
  15. Frame rate mode                          : Constant
  16. Frame rate                               : 24.000 FPS
  17. Color space                              : YUV
  18. Chroma subsampling                       : 4:2:0
  19. Bit depth                                : 8 bits
  20. Scan type                                : Progressive
  21. Bits/(Pixel*Frame)                       : 0.502
  22. Stream size                              : 52.3 GiB (91%)
  23. Writing library                          : x264 core 157 r2935 545de2f
  24. Encoding settings                        : cabac=1 / ref=5 / deblock=1:-1:-1 / analyse=0x3:0x113 / me=umh / subme=10 / psy=1 / psy_rd=1.00:0.15 / mixed_ref=1 / me_range=48 / chroma_me=1 / trellis=2 / 8x8dct=1 / cqm=0 / deadzone=21,11 / fast_pskip=1 / chroma_qp_offset=-3 / threads=48 / lookahead_threads=4 / sliced_threads=0 / nr=0 / decimate=0 / interlaced=0 / bluray_compat=0 / constrained_intra=0 / bframes=3 / b_pyramid=2 / b_adapt=2 / b_bias=0 / direct=3 / weightb=1 / open_gop=0 / weightp=2 / keyint=250 / keyint_min=24 / scenecut=40 / intra_refresh=0 / rc_lookahead=50 / rc=crf / mbtree=1 / crf=19.0 / qcomp=0.60 / qpmin=0 / qpmax=69 / qpstep=4 / ip_ratio=1.40 / aq=1:1.00
  25. Default                                  : Yes
  26. Forced                                   : No
  27. Audio #1
  28. ID                                       : 2
  29. ID in the original source medium         : 4352 (0x1100)
  30. Format                                   : MLP FBA 16-ch
  31. Format/Info                              : Meridian Lossless Packing FBA with 16-channel presentation
  32. Commercial name                          : Dolby TrueHD with Dolby Atmos
  33. Codec ID                                 : A_TRUEHD
  34. Duration                                 : 1 h 39 min
  35. Bit rate mode                            : Variable
  36. Bit rate                                 : 3 683 kb/s
  37. Maximum bit rate                         : 5 838 kb/s
  38. Channel(s)                               : 8 channels
  39. Channel layout                           : L R C LFE Ls Rs Lb Rb
  40. Sampling rate                            : 48.0 kHz
  41. Frame rate                               : 1 200.000 FPS (40 SPF)
  42. Bit depth                                : 24 bits
  43. Compression mode                         : Lossless
  44. Stream size                              : 2.55 GiB (4%)
  45. Title                                    : TrueHD 7.1 Atmos
  46. Language                                 : English
  47. Default                                  : Yes
  48. Forced                                   : No
  49. Original source medium                   : Blu-ray
  50. Number of dynamic objects                : 11
  51. Bed channel count                        : 1 channel
  52. Bed channel configuration                : LFE
  53. Audio #2
  54. ID                                       : 3
  55. Format                                   : DTS XLL
  56. Format/Info                              : Digital Theater Systems
  57. Commercial name                          : DTS-HD Master Audio
  58. Codec ID                                 : A_DTS
  59. Duration                                 : 1 h 39 min
  60. Bit rate mode                            : Variable
  61. Bit rate                                 : 3 468 kb/s
  62. Channel(s)                               : 8 channels
  63. Channel layout                           : C L R LFE Lb Rb Lss Rss
  64. Sampling rate                            : 48.0 kHz
  65. Frame rate                               : 93.750 FPS (512 SPF)
  66. Bit depth                                : 24 bits
  67. Compression mode                         : Lossless
  68. Stream size                              : 2.40 GiB (4%)
  69. Title                                    : DTS-HD MA 7.1
  70. Language                                 : English
  71. Default                                  : No
  72. Forced                                   : No
  73. Audio #3
  74. ID                                       : 4
  75. ID in the original source medium         : 4352 (0x1100)
  76. Format                                   : AC-3
  77. Format/Info                              : Audio Coding 3
  78. Commercial name                          : Dolby Digital
  79. Format settings                          : Dolby Surround EX
  80. Codec ID                                 : A_AC3
  81. Duration                                 : 1 h 39 min
  82. Bit rate mode                            : Constant
  83. Bit rate                                 : 640 kb/s
  84. Channel(s)                               : 6 channels
  85. Channel layout                           : L R C LFE Ls Rs
  86. Sampling rate                            : 48.0 kHz
  87. Frame rate                               : 31.250 FPS (1536 SPF)
  88. Compression mode                         : Lossy
  89. Stream size                              : 454 MiB (1%)
  90. Title                                    : DD 5.1
  91. Language                                 : English
  92. Service kind                             : Complete Main
  93. Default                                  : No
  94. Forced                                   : No
  95. Original source medium                   : Blu-ray
  96. Text #1
  97. ID                                       : 5
  98. Format                                   : UTF-8
  99. Codec ID                                 : S_TEXT/UTF8
  100. Codec ID/Info                            : UTF-8 Plain Text
  101. Duration                                 : 1 h 30 min
  102. Bit rate                                 : 35 b/s
  103. Count of elements                        : 729
  104. Stream size                              : 23.4 KiB (0%)
  105. Language                                 : English
  106. Default                                  : Yes
  107. Forced                                   : No
  108. Text #2
  109. ID                                       : 6
  110. Format                                   : UTF-8
  111. Codec ID                                 : S_TEXT/UTF8
  112. Codec ID/Info                            : UTF-8 Plain Text
  113. Duration                                 : 1 h 38 min
  114. Bit rate                                 : 38 b/s
  115. Count of elements                        : 922
  116. Stream size                              : 28.0 KiB (0%)
  117. Title                                    : SDH
  118. Language                                 : English
  119. Default                                  : No
  120. Forced                                   : No
  121. Text #3
  122. ID                                       : 7
  123. ID in the original source medium         : 4768 (0x12A0)
  124. Format                                   : PGS
  125. Muxing mode                              : zlib
  126. Codec ID                                 : S_HDMV/PGS
  127. Codec ID/Info                            : Picture based subtitle format used on BDs/HD-DVDs
  128. Duration                                 : 1 h 38 min
  129. Bit rate                                 : 24.1 kb/s
  130. Count of elements                        : 1856
  131. Stream size                              : 16.9 MiB (0%)
  132. Language                                 : English
  133. Default                                  : No
  134. Forced                                   : No
  135. Original source medium                   : Blu-ray
  136. Menu
  137. 00:00:00.000                             : en:Chapter 01
  138. 00:08:21.833                             : en:Chapter 02
  139. 00:16:42.708                             : en:Chapter 03
  140. 00:24:17.416                             : en:Chapter 04
  141. 00:32:39.833                             : en:Chapter 05
  142. 00:40:21.958                             : en:Chapter 06
  143. 00:48:36.833                             : en:Chapter 07
  144. 00:57:29.958                             : en:Chapter 08
  145. 01:07:20.000                             : en:Chapter 09
  146. 01:15:29.125                             : en:Chapter 10
  147. 01:23:10.916                             : en:Chapter 11
  148. 01:31:16.500                             : en:Chapter 12
复制代码

cc65f2a7c94ea0b487a5630d1e2bf488.png

18b66bc5dcf398bae35777f08020727c.png

80de9694502036312aa0a383a93d938b.png

5ef1d13cec90566a09a887012821285e.png

dce99615616e036d92f81e9c70b6115f.png







纽约大逃亡 Escape.from.New.York.1981.2160p.US.BluRay.x264.8bit.SDR.DTS-HD.MA.TrueHD.7.1.Atmos-SWTYBLZ 58.15GB


Hao8k.cn提示您 点击下方附件名称 即可开始下载

纽约大逃亡 Escape.from.New.York.1981.2160p.US.BluRay.x264.8bit.SDR.DTS-HD.MA.TrueHD.7.1.Atmos-SWTYBLZ 58.15GB

Escape.from.New.York.1981.2160p.US.BluRay.x264.8bit.SDR.DTS-HD.MA.TrueHD.7.1.Atm.torrent (73.45 KB, 下载次数: 0)
回复

使用道具 举报

您需要登录后才可以回帖 登录 | 立即注册

本版积分规则

蓝光电影网内容部分由用户自主分享和转载自互联网,转载目的在于传递更多信息,并不代表本网赞同其观点和对其真实性负责。 如有侵权、违反国家法律政策行为,请联系我们,我们会第一时间及时清除和处理!
移动端
  • 扫码访问小程序
  • 扫码访问手机端

Powered by 蓝光电影网 X3.4© 2021-2022 Hao8k.cn |网站地图