游客您好
第三方账号登陆
  • 点击联系客服

    在线时间:8:00-16:00

    电子邮件

    lanniao@4kpro.cn
  • 扫描二维码

    访问小程序

  • 扫描二维码

    访问手机版

推荐阅读
Hao8k资源组
未知星球 | 未知职业
  • 关注0
  • 粉丝1
  • 帖子59628
精选帖子
开启左侧

纽约大逃亡 Escape.from.New.York.1981.2160p.US.BluRay.x265.10bit.SDR.DTS-HD.MA.TrueHD.7.1.Atmos-SWTYBLZ 53.60GB

[复制链接]
Hao8k资源组 发表于 2022-6-29 12:02:59 | 显示全部楼层 |阅读模式 打印 上一主题 下一主题
画质标准:
10bit.SDR 2160p 
音质编码:
Dolby-Atmos Dolby-TrueHD DTS-HD Master Audio 
电影声道:
7.1声道


电影封面

马上注册 Hao8k.cn ,获得更好的体验,让你轻松玩转Hao8k

您需要 登录 才可以下载或查看,没有帐号?立即注册

x
fbce5d19f537106d8c8c4f766f036d72.jpeg


译  名 纽约大逃亡 / 逃出纽约

简  介

1988年,为了应对不断翻倍的犯罪增长率,联邦将曼哈顿岛改建成一座庞大的监狱,囚犯们被扔到其中自生自灭,纽约城变成了犯罪之城。转眼已是1997年,代号“大卫14”的美国空军一号被美国国家解放阵线劫持,最后坠毁在监狱城内,美国总统独自深陷城中。曾经的空军英雄、功勋特种队员普林斯肯中校(库尔特?拉塞尔 Kurt Russell 饰)由于抢劫银行入狱,政府决定利用普林斯肯潜入监狱城,救出总统。                                    
                                普林斯肯的任务时间只有二十四小时,他在城中找到了自己昔日的战友、如今监狱地下统治者“公爵”的部下瑟翁,他们合作搭救总统,而要面对的是无处不在的疯狂犯人……


影片参数
  1. Video
  2. ID                                       : 1
  3. Format                                   : HEVC
  4. Format/Info                              : High Efficiency Video Coding
  5. Format profile                           : Main [email protected]@High
  6. Codec ID                                 : V_MPEGH/ISO/HEVC
  7. Duration                                 : 1 h 39 min
  8. Bit rate                                 : 69.1 Mb/s
  9. Width                                    : 3 840 pixels
  10. Height                                   : 1 634 pixels
  11. Display aspect ratio                     : 2.35:1
  12. Frame rate mode                          : Constant
  13. Frame rate                               : 24.000 FPS
  14. Color space                              : YUV
  15. Chroma subsampling                       : 4:2:0
  16. Bit depth                                : 10 bits
  17. Bits/(Pixel*Frame)                       : 0.459
  18. Stream size                              : 47.8 GiB (90%)
  19. Writing library                          : x265 3.0ed72af837053:[Windows][GCC 8.2.0][64 bit] 10bit
  20. Encoding settings                        : cpuid=1111039 / frame-threads=6 / numa-pools=40 / wpp / no-pmode / no-pme / no-psnr / no-ssim / log-level=2 / input-csp=1 / input-res=3840x1634 / interlace=0 / total-frames=142694 / level-idc=51 / high-tier=1 / uhd-bd=0 / ref=3 / no-allow-non-conformance / repeat-headers / annexb / aud / hrd / info / hash=0 / no-temporal-layers / no-open-gop / min-keyint=1 / keyint=24 / gop-lookahead=0 / bframes=4 / b-adapt=2 / b-pyramid / bframe-bias=0 / rc-lookahead=25 / lookahead-slices=4 / scenecut=40 / radl=0 / no-splice / no-intra-refresh / ctu=64 / min-cu-size=8 / no-rect / no-amp / max-tu-size=32 / tu-inter-depth=1 / tu-intra-depth=1 / limit-tu=0 / rdoq-level=0 / dynamic-rd=0.00 / no-ssim-rd / signhide / no-tskip / nr-intra=0 / nr-inter=0 / no-constrained-intra / strong-intra-smoothing / max-merge=2 / limit-refs=3 / no-limit-modes / me=1 / subme=2 / merange=57 / temporal-mvp / weightp / no-weightb / no-analyze-src-pics / deblock=0:0 / no-sao / no-sao-non-deblock / rd=3 / no-early-skip / rskip / no-fast-intra / no-tskip-fast / no-cu-lossless / no-b-intra / no-splitrd-skip / rdpenalty=0 / psy-rd=2.00 / psy-rdoq=0.00 / no-rd-refine / no-lossless / cbqpoffs=0 / crqpoffs=0 / rc=crf / crf=17.0 / qcomp=0.60 / qpstep=4 / stats-write=0 / stats-read=0 / vbv-maxrate=160000 / vbv-bufsize=160000 / vbv-init=0.9 / crf-max=0.0 / crf-min=0.0 / ipratio=1.40 / pbratio=1.30 / aq-mode=1 / aq-strength=1.00 / cutree / zone-count=0 / no-strict-cbr / qg-size=32 / no-rc-grain / qpmax=69 / qpmin=0 / no-const-vbv / sar=1 / overscan=0 / videoformat=5 / range=0 / colorprim=2 / transfer=2 / colormatrix=2 / chromaloc=0 / display-window=0 / max-cll=0,0 / min-luma=0 / max-luma=1023 / log2-max-poc-lsb=8 / vui-timing-info / vui-hrd-info / slices=1 / opt-qp-pps / opt-ref-list-length-pps / no-multi-pass-opt-rps / scenecut-bias=0.05 / no-opt-cu-delta-qp / no-aq-motion / no-hdr / no-hdr-opt / no-dhdr10-opt / no-idr-recovery-sei / analysis-reuse-level=5 / scale-factor=0 / refine-intra=0 / refine-inter=0 / refine-mv=0 / refine-ctu-distortion=0 / no-limit-sao / ctu-info=0 / no-lowpass-dct / refine-analysis-type=0 / copy-pic=1 / max-ausize-factor=1.0 / no-dynamic-refine / no-single-sei / no-hevc-aq / qp-adaptation-range=1.00
  21. Default                                  : Yes
  22. Forced                                   : No
  23. Audio #1
  24. ID                                       : 2
  25. ID in the original source medium         : 4352 (0x1100)
  26. Format                                   : MLP FBA 16-ch
  27. Format/Info                              : Meridian Lossless Packing FBA with 16-channel presentation
  28. Commercial name                          : Dolby TrueHD with Dolby Atmos
  29. Codec ID                                 : A_TRUEHD
  30. Duration                                 : 1 h 39 min
  31. Bit rate mode                            : Variable
  32. Bit rate                                 : 3 683 kb/s
  33. Maximum bit rate                         : 5 838 kb/s
  34. Channel(s)                               : 8 channels
  35. Channel layout                           : L R C LFE Ls Rs Lb Rb
  36. Sampling rate                            : 48.0 kHz
  37. Frame rate                               : 1 200.000 FPS (40 SPF)
  38. Bit depth                                : 24 bits
  39. Compression mode                         : Lossless
  40. Stream size                              : 2.55 GiB (5%)
  41. Title                                    : TrueHD 7.1 Atmos
  42. Language                                 : English
  43. Default                                  : Yes
  44. Forced                                   : No
  45. Original source medium                   : Blu-ray
  46. Number of dynamic objects                : 11
  47. Bed channel count                        : 1 channel
  48. Bed channel configuration                : LFE
  49. Audio #2
  50. ID                                       : 3
  51. Format                                   : DTS XLL
  52. Format/Info                              : Digital Theater Systems
  53. Commercial name                          : DTS-HD Master Audio
  54. Codec ID                                 : A_DTS
  55. Duration                                 : 1 h 39 min
  56. Bit rate mode                            : Variable
  57. Bit rate                                 : 3 468 kb/s
  58. Channel(s)                               : 8 channels
  59. Channel layout                           : C L R LFE Lb Rb Lss Rss
  60. Sampling rate                            : 48.0 kHz
  61. Frame rate                               : 93.750 FPS (512 SPF)
  62. Bit depth                                : 24 bits
  63. Compression mode                         : Lossless
  64. Stream size                              : 2.40 GiB (5%)
  65. Title                                    : DTS-HD MA 7.1
  66. Language                                 : English
  67. Default                                  : No
  68. Forced                                   : No
  69. Audio #3
  70. ID                                       : 4
  71. ID in the original source medium         : 4352 (0x1100)
  72. Format                                   : AC-3
  73. Format/Info                              : Audio Coding 3
  74. Commercial name                          : Dolby Digital
  75. Format settings                          : Dolby Surround EX
  76. Codec ID                                 : A_AC3
  77. Duration                                 : 1 h 39 min
  78. Bit rate mode                            : Constant
  79. Bit rate                                 : 640 kb/s
  80. Channel(s)                               : 6 channels
  81. Channel layout                           : L R C LFE Ls Rs
  82. Sampling rate                            : 48.0 kHz
  83. Frame rate                               : 31.250 FPS (1536 SPF)
  84. Compression mode                         : Lossy
  85. Stream size                              : 454 MiB (1%)
  86. Title                                    : DD 5.1
  87. Language                                 : English
  88. Service kind                             : Complete Main
  89. Default                                  : No
  90. Forced                                   : No
  91. Original source medium                   : Blu-ray
  92. Text #1
  93. ID                                       : 5
  94. Format                                   : UTF-8
  95. Codec ID                                 : S_TEXT/UTF8
  96. Codec ID/Info                            : UTF-8 Plain Text
  97. Duration                                 : 1 h 30 min
  98. Bit rate                                 : 35 b/s
  99. Count of elements                        : 729
  100. Stream size                              : 23.4 KiB (0%)
  101. Language                                 : English
  102. Default                                  : Yes
  103. Forced                                   : No
  104. Text #2
  105. ID                                       : 6
  106. Format                                   : UTF-8
  107. Codec ID                                 : S_TEXT/UTF8
  108. Codec ID/Info                            : UTF-8 Plain Text
  109. Duration                                 : 1 h 38 min
  110. Bit rate                                 : 38 b/s
  111. Count of elements                        : 922
  112. Stream size                              : 28.0 KiB (0%)
  113. Title                                    : SDH
  114. Language                                 : English
  115. Default                                  : No
  116. Forced                                   : No
  117. Text #3
  118. ID                                       : 7
  119. ID in the original source medium         : 4768 (0x12A0)
  120. Format                                   : PGS
  121. Muxing mode                              : zlib
  122. Codec ID                                 : S_HDMV/PGS
  123. Codec ID/Info                            : Picture based subtitle format used on BDs/HD-DVDs
  124. Duration                                 : 1 h 38 min
  125. Bit rate                                 : 24.1 kb/s
  126. Count of elements                        : 1856
  127. Stream size                              : 16.9 MiB (0%)
  128. Language                                 : English
  129. Default                                  : No
  130. Forced                                   : No
  131. Original source medium                   : Blu-ray
  132. Menu
  133. 00:00:00.000                             : en:Chapter 01
  134. 00:08:21.833                             : en:Chapter 02
  135. 00:16:42.708                             : en:Chapter 03
  136. 00:24:17.416                             : en:Chapter 04
  137. 00:32:39.833                             : en:Chapter 05
  138. 00:40:21.958                             : en:Chapter 06
  139. 00:48:36.833                             : en:Chapter 07
  140. 00:57:29.958                             : en:Chapter 08
  141. 01:07:20.000                             : en:Chapter 09
  142. 01:15:29.125                             : en:Chapter 10
  143. 01:23:10.916                             : en:Chapter 11
  144. 01:31:16.500                             : en:Chapter 12
复制代码

665bdbc3c44b41f2a24ad56073d91c1b.png

bef475da1fa219c050439c3703735ee8.png

770e4855ae296607a07711dd1359b514.png

80de9694502036312aa0a383a93d938b.png

5ef1d13cec90566a09a887012821285e.png

dce99615616e036d92f81e9c70b6115f.png







纽约大逃亡 Escape.from.New.York.1981.2160p.US.BluRay.x265.10bit.SDR.DTS-HD.MA.TrueHD.7.1.Atmos-SWTYBLZ 53.60GB


Hao8k.cn提示您 点击下方附件名称 即可开始下载

纽约大逃亡 Escape.from.New.York.1981.2160p.US.BluRay.x265.10bit.SDR.DTS-HD.MA.TrueHD.7.1.Atmos-SWTYBLZ 53.60GB

Escape.from.New.York.1981.2160p.US.BluRay.x265.10bit.SDR.DTS-HD.MA.TrueHD.7.1.At.torrent (67.77 KB, 下载次数: 0)
回复

使用道具 举报

您需要登录后才可以回帖 登录 | 立即注册

本版积分规则

蓝光电影网内容部分由用户自主分享和转载自互联网,转载目的在于传递更多信息,并不代表本网赞同其观点和对其真实性负责。 如有侵权、违反国家法律政策行为,请联系我们,我们会第一时间及时清除和处理!
移动端
  • 扫码访问小程序
  • 扫码访问手机端

Powered by 蓝光电影网 X3.4© 2021-2022 Hao8k.cn |网站地图