游客您好
第三方账号登陆
  • 点击联系客服

    在线时间:8:00-16:00

    电子邮件

    lanniao@4kpro.cn
  • 扫描二维码

    访问小程序

  • 扫描二维码

    访问手机版

推荐阅读
Hao8k资源组
未知星球 | 未知职业
  • 关注0
  • 粉丝1
  • 帖子59628
精选帖子
开启左侧

五路追杀令[国语配音/中文字幕/特效字幕].Smokin''.Aces.2006.BluRay.2160p.DTS.X.7.1.HDR.x265.10bit-CTRLHD 23.01GB

[复制链接]
Hao8k资源组 发表于 2022-6-29 12:02:33 | 显示全部楼层 |阅读模式 打印 上一主题 下一主题
画质标准:
2160p 
音质编码:
未知 
电影声道:
7.1声道


电影封面

马上注册 Hao8k.cn ,获得更好的体验,让你轻松玩转Hao8k

您需要 登录 才可以下载或查看,没有帐号?立即注册

x
000907ma17m07qqt15kjkj.jpeg


译  名 五路追杀令 / 皇牌追杀令(港) / 呛烟高手 / 赌国追杀令 / 群雄逐鹿
  美国黑手党头目老普莱摩生命垂危,而此时他昔日的手下——魔术师巴迪(Jeremy Piven 饰)正与警方谈判,试图通过做污点证人来减轻自己的抢劫罪行,病床上的普莱摩下令拿到巴迪的心脏,并委托一名神秘的瑞典人处理此事。黑手党二号人物迅速发出了一百万美元的悬赏,誓要取得巴迪性命。截获此消息的警探理查德(Ryan Reynolds 饰)与唐纳德马上前往巴迪的所在地——太浩湖。与此同时,高额悬赏吸引了各路杀手,包括疯狂的纳粹三兄弟、辣妹双人组、易容杀手以及擅于刑讯的雇佣兵,三名离职警察亦同时受律师委托,带回弃保的巴迪。一时间,各路人马先后杀到巴迪潜藏的豪华酒店,将那里变成了混乱的战场……尘埃落定之后,理查德却发现了此案背后的玄机。


影片参数
  1. ##### MediaInfo ######
  2. General
  3. Unique ID                                : 302970354717217560051126275002663362205 (0xE3EDF7C4700C195D997D9BC73DAEDE9D)
  4. Complete name                            : Smokin''.Aces.2006.BluRay.2160p.DTS.X.7.1.HDR.x265.10bit-CTRLHD.mkv
  5. Format                                   : Matroska
  6. Format version                           : Version 4
  7. File size                                : 23.0 GiB
  8. Duration                                 : 1 h 48 min
  9. Overall bit rate mode                    : Variable
  10. Overall bit rate                         : 30.3 Mb/s
  11. Movie name                               : Smokin'' Aces
  12. Encoded date                             : UTC 2022-05-31 14:52:40
  13. Writing application                      : mkvmerge v63.0.0 (''Everything'') 64-bit
  14. Writing library                          : libebml v1.4.2 + libmatroska v1.6.4
  15. Cover                                    : Yes
  16. Attachments                              : cover.jpg
  17. Video
  18. ID                                       : 1
  19. Format                                   : HEVC
  20. Format/Info                              : High Efficiency Video Coding
  21. Format profile                           : Main [email protected]@High
  22. HDR format                               : SMPTE ST 2086, HDR10 compatible
  23. Codec ID                                 : V_MPEGH/ISO/HEVC
  24. Duration                                 : 1 h 48 min
  25. Bit rate                                 : 24.4 Mb/s
  26. Width                                    : 3 840 pixels
  27. Height                                   : 1 632 pixels
  28. Display aspect ratio                     : 2.35:1
  29. Frame rate mode                          : Constant
  30. Frame rate                               : 23.976 (24000/1001/53875) FPS
  31. Color space                              : YUV
  32. Chroma subsampling                       : 4:2:0 (Type 2)
  33. Bit depth                                : 10 bits
  34. Bits/(Pixel*Frame)                       : 0.162
  35. Stream size                              : 18.5 GiB (81%)
  36. Writing library                          : x265 3.5+2-g2b25c9ba0+87:[Windows][clang 12.0.1][64 bit] Kasumi 10bit
  37. Encoding settings                        : rc=crf / crf=14.0000 / qcomp=0.60 / qpstep=4 / stats-write=0 / stats-read=0 / no-lossless / no-cu-lossless / aq-mode=1 / aq-strength=1.00 / cbqpoffs=0 / crqpoffs=0 / ipratio=1.40 / pbratio=1.30 / psy-rd=3.00 / psy-rdoq=4.80 / deblock=0:0 / ref=6 / limit-refs=1 / no-limit-modes / bframes=14 / b-adapt=2 / bframe-bias=0 / b-pyramid / b-intra / weightp / weightb / min-keyint=23 / max-keyint=250 / rc-lookahead=75 / gop-lookahead=0 / NTM4NzU=uuDQuD2mJt9fsCf / scenecut=40 / hist-scenecut=0 / radl=0 / max-cu-size=64 / min-cu-size=8 / me=3 / subme=7 / merange=64 / rdoq-level=2 / rd=4 / rdpenalty=2 / dynamic-rd=0.00 / no-rd-refine / ----- / cutree / no-sao / no-rect / no-amp / no-open-gop / wpp / no-pmode / no-pme / no-psnr / no-ssim / nr-intra=0 / nr-inter=0 / no-constrained-intra / no-strong-intra-smoothing / max-tu-size=32 / tu-inter-depth=1 / tu-intra-depth=1 / limit-tu=0 / qg-size=32 / qpmax=69 / qpmin=0 / ----- / cpuid=538751111039 / frame-threads=5 / numa-pools=64,64,0,0 / log-level=2 / input-csp=1 / input-res=3840x1632 / interlace=0 / level-idc=0 / high-tier=1 / uhd-bd=0 / no-allow-non-conformance / repeat-headers / no-aud / no-hrd / info / hash=0 / no-temporal-layers / lookahead-slices=8 / no-splice / no-intra-refresh / no-ssim-rd / signhide / no-tskip / max-merge=3 / temporal-mvp / no-frame-dup / no-hme / no-analyze-src-pics / no-sao-non-deblock / selective-sao=0 / early-skip / rskip / no-fast-intra / no-tskip-fast / no-splitrd-skip / zone-count=0 / no-strict-cbr / no-rc-grain / no-const-vbv / sar=0 / overscan=0 / videoformat=5 / range=0 / colorprim=9 / transfer=16 / colormatrix=9 / chromaloc=1 / chromaloc-top=2 / chromaloc-bottom=2 / display-window=0 / master-display=G(13250,34500)B(7500,3000)R(34000,16000)WP(15635,16450)L(10000000,50) / cll=833,108 / min-luma=0 / max-luma=1023 / log2-max-poc-lsb=8 / vui-timing-info / vui-hrd-info / slices=1 / no-opt-qp-pps / no-opt-ref-list-length-pps / no-multi-pass-opt-rps / scenecut-bias=0.05 / hist-threshold=0.03 / no-opt-cu-delta-qp / aq-motion / hdr10 / hdr10-opt / no-dhdr10-opt / no-idr-recovery-sei / analysis-reuse-level=0 / analysis-save-reuse-level=0 / analysis-load-reuse-level=0 / scale-factor=0 / refine-intra=0 / refine-inter=0 / refine-mv=1 / refine-ctu-distortion=0 / no-limit-sao / ctu-info=0 / no-lowpass-dct / refine-analysis-type=0 / copy-pic=1 / max-ausize-factor=1.0 / no-dynamic-refine / no-single-sei / no-hevc-aq / no-svt / no-field / qp-adaptation-range=1.00 / scenecut-aware-qp=0conformance-window-offsets / right=0 / bottom=0 / NTM4NzU= / decoder-max-rate=0 / no-vbv-live-multi-pass
  38. Default                                  : Yes
  39. Forced                                   : No
  40. Color range                              : Limited
  41. Color primaries                          : BT.2020
  42. Transfer characteristics                 : PQ
  43. Matrix coefficients                      : BT.2020 non-constant
  44. Mastering display color primaries        : Display P3
  45. Mastering display luminance              : min: 0.0050 cd/m2, max: 1000 cd/m2
  46. Maximum Content Light Level              : 833 cd/m2
  47. Maximum Frame-Average Light Level        : 108 cd/m2
  48. Audio #1
  49. ID                                       : 2
  50. ID in the original source medium         : 4352 (0x1100)
  51. Format                                   : DTS XLL X
  52. Format/Info                              : Digital Theater Systems
  53. Commercial name                          : DTS-HD Master Audio
  54. Codec ID                                 : A_DTS
  55. Duration                                 : 1 h 48 min
  56. Bit rate mode                            : Variable
  57. Bit rate                                 : 3 526 kb/s
  58. Channel(s)                               : 8 channels
  59. Channel(s)_Original                      : Object Based
  60. ChannelLayout_Original                   : Object Based
  61. Sampling rate                            : 48.0 kHz
  62. Frame rate                               : 93.750 FPS (512 SPF)
  63. Bit depth                                : 24 bits
  64. Stream size                              : 2.68 GiB (12%)
  65. Language                                 : English
  66. Default                                  : Yes
  67. Forced                                   : No
  68. Original source medium                   : Blu-ray
  69. Audio #2
  70. ID                                       : 3
  71. ID in the original source medium         : 4358 (0x1106)
  72. Format                                   : DTS XLL
  73. Format/Info                              : Digital Theater Systems
  74. Commercial name                          : DTS-HD Master Audio
  75. Codec ID                                 : A_DTS
  76. Duration                                 : 1 h 48 min
  77. Bit rate mode                            : Variable
  78. Bit rate                                 : 2 168 kb/s
  79. Channel(s)                               : 6 channels
  80. Channel layout                           : C L R Ls Rs LFE
  81. Sampling rate                            : 48.0 kHz
  82. Frame rate                               : 93.750 FPS (512 SPF)
  83. Bit depth                                : 16 bits
  84. Compression mode                         : Lossless
  85. Stream size                              : 1.65 GiB (7%)
  86. Title                                    : 东影上译
  87. Language                                 : Chinese
  88. Default                                  : Yes
  89. Forced                                   : No
  90. Original source medium                   : Blu-ray
  91. Text #1
  92. ID                                       : 4
  93. ID in the original source medium         : 4768 (0x12A0)
  94. Format                                   : PGS
  95. Muxing mode                              : zlib
  96. Codec ID                                 : S_HDMV/PGS
  97. Codec ID/Info                            : Picture based subtitle format used on BDs/HD-DVDs
  98. Duration                                 : 1 h 39 min
  99. Bit rate                                 : 55.9 kb/s
  100. Count of elements                        : 3140
  101. Stream size                              : 39.9 MiB (0%)
  102. Language                                 : English
  103. Default                                  : Yes
  104. Forced                                   : No
  105. Original source medium                   : Blu-ray
  106. Text #2
  107. ID                                       : 5
  108. ID in the original source medium         : 4783 (0x12AF)
  109. Format                                   : PGS
  110. Muxing mode                              : zlib
  111. Codec ID                                 : S_HDMV/PGS
  112. Codec ID/Info                            : Picture based subtitle format used on BDs/HD-DVDs
  113. Duration                                 : 1 h 43 min
  114. Bit rate                                 : 67.7 kb/s
  115. Count of elements                        : 4837
  116. Stream size                              : 50.2 MiB (0%)
  117. Title                                    : 简体中文
  118. Language                                 : Chinese
  119. Default                                  : Yes
  120. Forced                                   : No
  121. Original source medium                   : Blu-ray
  122. Text #3
  123. ID                                       : 6
  124. ID in the original source medium         : 4784 (0x12B0)
  125. Format                                   : PGS
  126. Muxing mode                              : zlib
  127. Codec ID                                 : S_HDMV/PGS
  128. Codec ID/Info                            : Picture based subtitle format used on BDs/HD-DVDs
  129. Duration                                 : 1 h 43 min
  130. Bit rate                                 : 68.9 kb/s
  131. Count of elements                        : 4837
  132. Stream size                              : 51.1 MiB (0%)
  133. Title                                    : 繁体中文
  134. Language                                 : Chinese
  135. Default                                  : Yes
  136. Forced                                   : No
  137. Original source medium                   : Blu-ray
  138. Text #4
  139. ID                                       : 7
  140. ID in the original source medium         : 4785 (0x12B1)
  141. Format                                   : PGS
  142. Muxing mode                              : zlib
  143. Codec ID                                 : S_HDMV/PGS
  144. Codec ID/Info                            : Picture based subtitle format used on BDs/HD-DVDs
  145. Duration                                 : 1 h 43 min
  146. Bit rate                                 : 107 kb/s
  147. Count of elements                        : 4259
  148. Stream size                              : 79.2 MiB (0%)
  149. Title                                    : 简英双语
  150. Language                                 : Chinese
  151. Default                                  : Yes
  152. Forced                                   : No
  153. Original source medium                   : Blu-ray
  154. Text #5
  155. ID                                       : 8
  156. ID in the original source medium         : 4786 (0x12B2)
  157. Format                                   : PGS
  158. Muxing mode                              : zlib
  159. Codec ID                                 : S_HDMV/PGS
  160. Codec ID/Info                            : Picture based subtitle format used on BDs/HD-DVDs
  161. Duration                                 : 1 h 43 min
  162. Bit rate                                 : 108 kb/s
  163. Count of elements                        : 4259
  164. Stream size                              : 80.1 MiB (0%)
  165. Title                                    : 繁英双语
  166. Language                                 : Chinese
  167. Default                                  : Yes
  168. Forced                                   : No
  169. Original source medium                   : Blu-ray
  170. Menu
  171. 00:00:00.000                             : en:第 01 章
  172. 00:05:43.968                             : en:第 02 章
  173. 00:11:15.466                             : en:第 03 章
  174. 00:18:20.849                             : en:第 04 章
  175. 00:25:50.215                             : en:第 05 章
  176. 00:30:20.443                             : en:第 06 章
  177. 00:35:39.804                             : en:第 07 章
  178. 00:40:19.917                             : en:第 08 章
  179. 00:48:23.275                             : en:第 09 章
  180. 00:55:46.801                             : en:第 10 章
  181. 00:59:59.512                             : en:第 11 章
  182. 01:04:18.604                             : en:第 12 章
  183. 01:10:16.545                             : en:第 13 章
  184. 01:14:53.030                             : en:第 14 章
  185. 01:22:17.432                             : en:第 15 章
  186. 01:24:54.297                             : en:第 16 章
  187. 01:28:16.291                             : en:第 17 章
  188. 01:31:15.344                             : en:第 18 章
  189. 01:39:26.251                             : en:第 19 章
  190. 01:42:18.674                             : en:第 20 章
复制代码



Hao8k.cn提示您 点击下方附件名称 即可开始下载

五路追杀令[国语配音/中文字幕/特效字幕].Smokin''.Aces.2006.BluRay.2160p.DTS.X.7.1.HDR.x265.10bit-CTRLHD 23.01GB

[attach][/attach]
回复

使用道具 举报

您需要登录后才可以回帖 登录 | 立即注册

本版积分规则

蓝光电影网内容部分由用户自主分享和转载自互联网,转载目的在于传递更多信息,并不代表本网赞同其观点和对其真实性负责。 如有侵权、违反国家法律政策行为,请联系我们,我们会第一时间及时清除和处理!
移动端
  • 扫码访问小程序
  • 扫码访问手机端

Powered by 蓝光电影网 X3.4© 2021-2022 Hao8k.cn |网站地图