游客您好
第三方账号登陆
  • 点击联系客服

    在线时间:8:00-16:00

    电子邮件

    lanniao@4kpro.cn
  • 扫描二维码

    访问小程序

  • 扫描二维码

    访问手机版

推荐阅读
Hao8k资源组
未知星球 | 未知职业
  • 关注0
  • 粉丝1
  • 帖子59628
精选帖子
开启左侧

[爱情片] 法外之徒 Outside.the.Law.1920.1080p.BluRay.x264-ORBS 8.31GB

[复制链接]
Hao8k资源组 发表于 2022-6-24 14:50:59 | 显示全部楼层 |阅读模式 打印 上一主题 下一主题

马上注册 Hao8k.cn ,获得更好的体验,让你轻松玩转Hao8k

您需要 登录 才可以下载或查看,没有帐号?立即注册

x
7b10718a66a0373714c69e6099fd94b6.jpeg


标  题 法外之徒
片  名 Outside The Law
年  代 1920
产  地 美国
类  别 爱情 / 犯罪
语  言 英语
上映日期 1920-12-26
IMDb评分 6.6/10 (599人评价)
片  长 75 分钟
导  演 托德·布朗宁 Tod Browning
编  剧 托德·布朗宁 Tod Browning
       卢西恩·哈伯德 Lucien Hubbard
       Gardner Bradford Gardner Bradford
演  员 普丽西拉·迪恩 Priscilla Dean
       惠勒·奥克曼 Wheeler Oakman
       朗·钱尼 Lon Chaney
       黄柳霜 Anna May Wong
       E·阿兰·沃伦 E. Alyn Warren
       Melbourne MacDowell Melbourne MacDowell
       Stanley Goethals Stanley Goethals
       John George John George
       拉尔夫·李维斯 Ralph Lewis
       托德·布朗宁 Tod Browning
       Edward Kilenyi Edward Kilenyi
       William Fildew William Fildew
       Elmer Sheeley Elmer Sheeley
       莱奥·麦卡雷 Leo McCarey


影片参数
  1. Video
  2. ID                                       : 1
  3. Format                                   : AVC
  4. Format/Info                              : Advanced Video Codec
  5. Format profile                           : [email protected]
  6. Format settings                          : CABAC / 5 Ref Frames
  7. Format settings, CABAC                   : Yes
  8. Format settings, Reference frames        : 5 frames
  9. Codec ID                                 : V_MPEG4/ISO/AVC
  10. Duration                                 : 1 h 16 min
  11. Bit rate                                 : 14.3 Mb/s
  12. Width                                    : 1 458 pixels
  13. Height                                   : 1 080 pixels
  14. Display aspect ratio                     : 4:3
  15. Frame rate mode                          : Constant
  16. Frame rate                               : 23.976 (24000/1001/189150) FPS
  17. Color space                              : YUV
  18. Chroma subsampling                       : 4:2:0
  19. Bit depth                                : 8 bits
  20. Scan type                                : Progressive
  21. Bits/(Pixel*Frame)                       : 0.379
  22. Stream size                              : 7.60 GiB (91%)
  23. Writing library                          : x264 core 164 r3094 bfc87b7
  24. Encoding settings                        : cabac=1 / ref=5 / deblock=1:-3:-3 / analyse=0x3:0x133 / me=umh / subme=10 / psy=1 / psy_rd=1.20:0.00 / mixed_ref=1 / me_range=24 / chroma_me=1 / trellis=2 / 8x8dct=1 / cqm=0 / deadzone=21,11 / fast_pskip=0 / chroma_qp_offset=-2 / threads=24 / lookahead_threads=4 / sliced_threads=0 / nr=0 / decimate=0 / interlaced=0 / bluray_compat=0 / constrained_intra=0 / bframes=8 / b_pyramid=2 / b_adapt=2 / b_bias=0 / direct=3 / weightb=1 / open_gop=0 / weightp=2 / keyint=250 / keyint_min=23 / scenecut=40 / intra_refresh=0 / rc_lookahead=60 / rc=crf / mbtree=1 / crf=24.5 / qcomp=0.60 / qpmin=0 / qpmax=69 / qpstep=4 / ip_ratio=1.40 / aq=3:0.90
  25. Default                                  : Yes
  26. Forced                                   : No
  27. Color range                              : Limited
  28. Matrix coefficients                      : BT.709

  29. Audio
  30. ID                                       : 2
  31. Format                                   : FLAC
  32. Format/Info                              : Free Lossless Audio Codec
  33. Codec ID                                 : A_FLAC
  34. Duration                                 : 1 h 16 min
  35. Bit rate mode                            : Variable
  36. Bit rate                                 : 1 332 kb/s
  37. Channel(s)                               : 2 channels
  38. Channel layout                           : L R
  39. Sampling rate                            : 48.0 kHz
  40. Frame rate                               : 11.719 FPS (4096 SPF)
  41. Bit depth                                : 24 bits
  42. Compression mode                         : Lossless
  43. Stream size                              : 724 MiB (9%)
  44. Writing library                          : libFLAC 1.3.3 (UTC 2019-08-04)
  45. Default                                  : Yes
  46. Forced                                   : No

  47. Menu
  48. 00:00:00.000                             : Chapter 01
  49. 00:12:35.129                             : Chapter 02
  50. 00:20:09.333                             : Chapter 03
  51. 00:27:26.019                             : Chapter 04
  52. 00:37:38.923                             : Chapter 05
  53. 00:49:20.416                             : Chapter 06
  54. 00:56:01.775                             : Chapter 07
  55. 01:06:06.337                             : Chapter 08
复制代码

1354b25f8f4cd0540da37319aba9baf5.jpeg



Hao8k.cn提示您 点击下方附件名称 即可开始下载

法外之徒 Outside.the.Law.1920.1080p.BluRay.x264-ORBS 8.31GB

Outside.the.Law.1920.1080p.BluRay.x264-ORBS.torrent (21.5 KB, 下载次数: 0)
回复

使用道具 举报

您需要登录后才可以回帖 登录 | 立即注册

本版积分规则

蓝光电影网内容部分由用户自主分享和转载自互联网,转载目的在于传递更多信息,并不代表本网赞同其观点和对其真实性负责。 如有侵权、违反国家法律政策行为,请联系我们,我们会第一时间及时清除和处理!
移动端
  • 扫码访问小程序
  • 扫码访问手机端

Powered by 蓝光电影网 X3.4© 2021-2022 Hao8k.cn |网站地图