开启左侧

我和我的家乡[国语配音/中文字幕].My.People.My.Homeland.2020.2160p.WEB-DL.H265.DDP5.1-HDBWEB 15.98GB

Hao8k资源组 发表于 2022-6-13 14:09:06 | 显示全部楼层 |阅读模式
画质标准:
WEB-DL 2160p 
音质编码:
其它DDP 
电影声道:
5.1声道


电影封面

马上注册 Hao8k.cn ,获得更好的体验,让你轻松玩转Hao8k

您需要 登录 才可以下载或查看,没有帐号?立即注册

x
010904by6p2zp0qaqrrkal.jpeg


译  名 我和我的家乡 / My People, My Homeland
年  代 2020
产  地 中国大陆
类  别 剧情 / 喜剧
语  言 汉语普通话
上映日期 2020-10-01(中国大陆)
IMDb链接 https://www.imdb.com/title/tt12363162/
豆瓣评分 7.0/10 (600834人评价)
豆瓣链接 https://movie.douban.com/subject/35051512/
片  长 153分钟
导  演 宁浩 Hao Ning
       徐峥 Zheng Xu
       陈思诚 Sicheng Chen
       闫非 Fei Yan
       彭大魔 Damo Peng
       邓超 Chao Deng
       俞白眉 Baimei Yu
编  剧 刘吾驷 Wusi Liu
       王昂 Ang Wang
       俞白眉 Baimei Yu
       邢文雄 Wenxiong Xing
       何可可 Keke He
       徐峥 Zheng Xu
       陈思诚 Sicheng Chen
       闫非 Fei Yan
       彭大魔 Damo Peng
       束焕 Huan Shu
       全丽璇 Lixuan Quan
       布鲁鲁夫 Bululufu
       李鹏 Peng Li
       尹琪 Qi Yin
       许容硕 Rongshuo Xu
       张彦 Yan Zhang
       余弋  Yi Yu
       孙小闲  
演  员 葛优 You Ge
       黄渤 Bo Huang
       范伟 Wei Fan
       邓超 Chao Deng
       沈腾 Teng Shen
       张占义 Zhanyi Zhang
       王宝强 Baoqiang Wang
       徐峥 Zheng Xu
       闫妮 Ni Yan
       马丽 Li Ma
       刘敏涛 Mintao Liu
       刘昊然 Haoran Liu
       卢靖姗 Celina Jade
       王子文 Ava Wang
       魏翔 Xiang Wei
       章宇 Yu Zhang
       王砚辉 Yanhui Wang
       张译 Yi Zhang
       王源 Roy Wang
       张一鸣 Yiming Zhang
       杨新鸣 Xinming Yang
       王迅 Xun Wang
       于和伟 Hewei Yu
       苗阜 Fu Miao
       辣目洋子 Jackie Li
       张子贤 Zixian Zhang
       董子健 Zijian Dong
       陶虹 Hong Tao
       吴京 Jing Wu
       韩彦博 Yanbo Han
       吕行 Xing Lü
       佟丽娅 Liya Tong
       李晨 Chen Li
       孙俪 Li Sun
       赵铁人 Tieren Zhao
       郝云 Yun Hao
       彭昱畅 Yuchang Peng
       杨紫 Andy Yang
       岳云鹏 Yunpeng Yue
       赵海燕 Haiyan Zhao
       岳小军 Xiaojun Yue
       王俊凯 Karry Wang
       贾玲 Ling Jia
       潘斌龙 Binlong Pan
       高睿菲儿 Ruifeier Gao
       陈数 Shu Chen
       代乐乐 Lele Dai
       黄才伦 Cailun Huang
       雷佳音 Jiayin Lei
       梁超 Chao Liang
       孙贵权 Guiquan Sun
       韩昊霖 Haolin Han
       岳红 Hong Yue
       陶亮 Liang Tao
       李易峰 Yifeng Li
       许猛 Meng Xu
       郭帆 Frant Gwo
       卫莱 Lai Wei
       栗坤 Kun Li
       薇娅 Viya
       李佳琦 Austin
       白泽泽 Zeze Bai
       蔡蝶 Die Cai
       刘炫锐 Xuanrui Liu
       张建亚 Jianya Zhang
       张芝华 Zhihua Zhang
       尚语贤 Yuxian Shang
       王西 Xi Wang
       王子昭 Zizhao Wang
       索朗美淇 Maggie
       陈昊 Hao Chen
       孙若淇 Ruoqi Sun
       封柏 Bai Feng
       张栾 Luan Zhang
       唐伯虎 Annie Lowdermilk
       李明轩 Mingxuan Li
       景瓷 Ci Jing
       吴亚衡 Yaheng Wu
       贝镜水 Jingshui Bei
       蔡婧 Cheldon Cai
       王语甜 Yutian Wang
       周俞辰 Yuchen Zhou
       张艺谋 Yimou Zhang
       张一白 Yibai Zhang
       宋歌 Ge Song
       张苗 Joe Zhang
       于冬 Dong Yu
       刘瑞芳 Ruifang Liu
       郑志昊 Zhihao Zheng
       曹华益 Huayi Cao
       傅若清 Ruoqing Fu
       曾茂军 Maojun Zeng
       庞丽薇 Liwei Pang
       王易冰 Yibing Wang
       李捷 Jie Li
       焦宏奋 Hongfen Jiao
       周茂非 Maofei Zhou
       郁笑沣 Xiaofeng Yu
       讲武生 Wusheng Jiang
       刘洪涛 Hongtao Liu
       刘长乐 Changle Liu
       关海龙 Hailong Guan
       沈小葳 Xiaowei Shen
       钱瑞 Rui Qian
       栗飞 Fei Li
       王健儿 Jian''er Wang
       冷一 Leng Yi
       马峥 Zheng Ma
       钱重远 Zhongyuan Qian
       吴京 Jing Wu
       李衡 Hank Lee
       刘寅 Michael Liu
       常城 Cheng Chang
       王硕  
       陈跃 Yue Chen
       蔡婧 Cheldon Cai
       韩睿达 Ruida Han
       耿帅 Shuai Geng
简  介

电影《我和我的家乡》定档2020年国庆,延续《我和我的祖国》集体创作的方式,由张艺谋担当总监制,宁浩担任总导演,张一白担任总策划,宁浩、徐峥、陈思诚、闫非&彭大魔、邓超&俞白眉分别执导五个故事。
获奖情况 (共2项)
  第34届中国电影金鸡奖 (2021)
  最佳故事片(提名)
  第7届豆瓣电影年度榜单 (2020)
  评分最高的华语电影(提名)


影片参数
  1. ##### MediaInfo ######
  2. General
  3. Complete name                            : 我和我的家乡.My.People.My.Homeland.2020.2160p.WEB-DL.H265.DDP5.1-HDBWEB.mp4
  4. Format                                   : MPEG-4
  5. Format profile                           : Base Media
  6. Codec ID                                 : isom (isom/iso2/mp41)
  7. File size                                : 16.0 GiB
  8. Duration                                 : 2 h 31 min
  9. Overall bit rate                         : 15.1 Mb/s
  10. Writing application                      : OurTV Multimedia Platform
  11. Video
  12. ID                                       : 1
  13. Format                                   : HEVC
  14. Format/Info                              : High Efficiency Video Coding
  15. Format profile                           : [email protected]@Main
  16. Codec ID                                 : hev1
  17. Codec ID/Info                            : High Efficiency Video Coding
  18. Duration                                 : 2 h 31 min
  19. Bit rate                                 : 14.9 Mb/s
  20. Width                                    : 3 840 pixels
  21. Height                                   : 2 160 pixels
  22. Display aspect ratio                     : 16:9
  23. Frame rate mode                          : Constant
  24. Frame rate                               : 25.000 FPS
  25. Standard                                 : Component
  26. Color space                              : YUV
  27. Chroma subsampling                       : 4:2:0
  28. Bit depth                                : 8 bits
  29. Bits/(Pixel*Frame)                       : 0.072
  30. Stream size                              : 15.8 GiB (99%)
  31. Color range                              : Limited
  32. Codec configuration box                  : hvcC
  33. Audio
  34. ID                                       : 2
  35. Format                                   : E-AC-3
  36. Format/Info                              : Enhanced AC-3
  37. Commercial name                          : Dolby Digital Plus
  38. Codec ID                                 : ec-3
  39. Duration                                 : 2 h 31 min
  40. Bit rate mode                            : Constant
  41. Bit rate                                 : 192 kb/s
  42. Channel(s)                               : 6 channels
  43. Channel layout                           : L R C LFE Ls Rs
  44. Sampling rate                            : 48.0 kHz
  45. Frame rate                               : 31.250 FPS (1536 SPF)
  46. Compression mode                         : Lossy
  47. Stream size                              : 209 MiB (1%)
  48. Service kind                             : Complete Main
  49. Default                                  : Yes
  50. Alternate group                          : 1
复制代码


010904onzyl43gyfggac3i.jpeg

010904sv4pp8l0ilpi4pel.jpeg

010905ihvbvk09nlknn1d0.jpeg

010905jhm91na3nfbv12yv.jpeg

010905qrx1zgwg199vd79e.jpeg

010905qtte4e9kuhueqhux.jpeg



Hao8k.cn提示您 点击下方附件名称 即可开始下载

我和我的家乡[国语配音/中文字幕].My.People.My.Homeland.2020.2160p.WEB-DL.H265.DDP5.1-HDBWEB 15.98GB

我和我的家乡[国语配音 中文字幕].My.People.My.Homeland.2020.2160p.WEB-DL.H265.DDP.torrent ( 40.92 KB )

回复

使用道具 举报

全部回复3 显示全部楼层
allen1234 发表于 2023-1-22 09:19:57 | 显示全部楼层
感谢楼主分享
回复

使用道具 举报

allen1234 发表于 5 天前 | 显示全部楼层
感谢楼主分享
回复

使用道具 举报

慕赫ken 发表于 前天 19:40 | 显示全部楼层
谢谢分享
回复

使用道具 举报

声明:您在社区发表的所有信息仅代表用户个人观点,与本网站立场无关,希望各位烧友理性发言,不发表违法国家法律禁止的话题。

您需要登录后才可以回帖 登录 | 立即注册

本版积分规则

开通会员 每日签到 返回顶部 返回列表