游客您好
第三方账号登陆
  • 点击联系客服

    在线时间:8:00-16:00

    电子邮件

    lanniao@4kpro.cn
  • 扫描二维码

    访问小程序

  • 扫描二维码

    访问手机版

推荐阅读
Hao8k资源组
未知星球 | 未知职业
  • 关注0
  • 粉丝1
  • 帖子58083
精选帖子
开启左侧

[剧情片] 苏州河[国语音轨/繁英字幕].Suzhou.River.2000.BluRay.1080p.DTS-HD.MA.2.0.x265.10bit-ALT 7.42GB

[复制链接]
Hao8k资源组 发表于 2022-5-23 13:41:45 | 显示全部楼层 |阅读模式 打印 上一主题 下一主题

马上注册 Hao8k.cn ,获得更好的体验,让你轻松玩转Hao8k

您需要 登录 才可以下载或查看,没有帐号?立即注册

x
154135frjjmjmmojr1wnrz.jpeg


译  名 苏州河 / Suzhou River
年  代 2000
产  地 中国大陆 / 德国
类  别 剧情 / 爱情
语  言 汉语普通话
上映日期 2000-09-07(中国香港)
豆瓣评分 8.2/10 (196186人评价)
片  长 83 分钟
导  演 娄烨 Ye Lou
编  剧 娄烨 Ye Lou
演  员 周迅 Xun Zhou
       贾宏声 Jia Hongsheng
       华仲凯 Zhongkai Hua
       姚安濂 Anlian Yao
       耐安 An Nai
       耐安 An Nai
       菲利普·伯拜 Philippe Bober
       浅井隆 Takashi Asai
       窦鹏 Peng Dou
       J?rg Lemberg J?rg Lemberg
       王昱 Yu Wang
       卡尔·里德尔 Karl Riedl
       李卓艺 Zhuoyi Li
       毛小睿 Xiaorui Mao
       富康 Kang Fu
       Peijun Xu Peijun Xu
       黄妍 Yan Huang

简  介

上海苏州河上,用摩托车替人送货的马达(贾宏声)接下送接纯真少女牡丹(周迅)的活,两人相处时,牡丹爱上马达,但就在她决定把终身托付给对方时,马达财迷心窍联合黑道朋友绑架了她,令牡丹心灰意冷跳进苏州河里。临跳前,牡丹丢下会变成美人鱼再寻马达的话。                                    
                                五年后,为自己行为懊悔不迭的马达疑惑牡丹又回来了,开始四处找寻。当在某酒吧里看到扮美人鱼表演的美美(周迅)时,马达认定她就是牡丹,然而美美不过是另一个痴情女子而已。


获奖情况 (共1项)

第1届华语电影传媒大奖 (2001)
  年度十佳华语电影


影片参数
  1. ##### MediaInfo ######
  2. General
  3. Unique ID                                : 41811602733698327818381809776868304903 (0x1F749F2C7FFC6DE4AE6A812A17E9A807)
  4. Complete name                            : Suzhou.River.2000.BluRay.1080p.DTS-HD.MA.2.0.x265.10bit-ALT.mkv
  5. Format                                   : Matroska
  6. Format version                           : Version 4
  7. File size                                : 7.42 GiB
  8. Duration                                 : 1 h 22 min
  9. Overall bit rate mode                    : Variable
  10. Overall bit rate                         : 12.8 Mb/s
  11. Encoded date                             : UTC 2022-05-13 13:05:23
  12. Writing application                      : mkvmerge v49.0.0 (''Sick Of Losing Soulmates'') 64-bit
  13. Writing library                          : libebml v1.4.0 + libmatroska v1.6.1
  14. Video
  15. ID                                       : 1
  16. Format                                   : HEVC
  17. Format/Info                              : High Efficiency Video Coding
  18. Format profile                           : Main [email protected]@High
  19. Codec ID                                 : V_MPEGH/ISO/HEVC
  20. Duration                                 : 1 h 22 min
  21. Bit rate                                 : 11.9 Mb/s
  22. Width                                    : 1 920 pixels
  23. Height                                   : 1 080 pixels
  24. Display aspect ratio                     : 16:9
  25. Frame rate mode                          : Constant
  26. Frame rate                               : 24.000 FPS
  27. Color space                              : YUV
  28. Chroma subsampling                       : 4:2:0
  29. Bit depth                                : 10 bits
  30. Bits/(Pixel*Frame)                       : 0.239
  31. Stream size                              : 6.87 GiB (93%)
  32. Title                                    : HEVC, [email protected]@High, 24 fps @ 11901 kbps
  33. Writing library                          : x265 3.5+36-1f2c8da77:[Windows][GCC 11.2.0][64 bit] 10bit
  34. Encoding settings                        : cpuid=538751111039 / frame-threads=4 / numa-pools=20 / wpp / no-pmode / no-pme / no-psnr / no-ssim / log-level=2 / input-csp=1 / input-res=1920x1080 / interlace=0 / total-frames=119026 / level-idc=51 / high-tier=1 / uhd-bd=0 / ref=5 / no-allow-non-conformance / no-repeat-headers / annexb / no-aud / no-eob / no-eos / no-hrd / info / hash=0 / no-temporal-layers / open-gop / min-keyint=24 / keyint=240 / gop-lookahead=0 / bframes=6 / b-adapt=2 / b-pyramid / bframe-bias=0 / rc-lookahead=40 / lookahead-slices=0 / NTM4NzU=uuDQuD2mJt9fsCf / scenecut=40 / no-hist-scenecut / radl=0 / no-splice / no-intra-refresh / ctu=32 / min-cu-size=8 / no-rect / no-amp / max-tu-size=32 / tu-inter-depth=3 / tu-intra-depth=3 / limit-tu=4 / rdoq-level=2 / dynamic-rd=0.00 / no-ssim-rd / signhide / no-tskip / nr-intra=0 / nr-inter=0 / no-constrained-intra / no-strong-intra-smoothing / max-merge=4 / limit-refs=1 / limit-modes / me=3 / subme=4 / merange=25 / temporal-mvp / no-frame-dup / no-hme / weightp / weightb / no-analyze-src-pics / deblock=-3:-3 / no-sao / no-sao-non-deblock / rd=6 / selective-sao=0 / no-early-skip / rskip / no-fast-intra / no-tskip-fast / no-cu-lossless / b-intra / no-splitrd-skip / rdpenalty=0 / psy-rd=2.00 / psy-rdoq=1.00 / no-rd-refine / no-lossless / cbqpoffs=-2 / crqpoffs=-2 / rc=crf / crf=18.5 / qcomp=0.65 / qpstep=4 / stats-write=0 / stats-read=0 / vbv-maxrate=80000 / vbv-bufsize=80000 / vbv-init=0.9 / min-vbv-fullness=50.0 / max-vbv-fullness=80.0 / crf-max=0.0 / crf-min=0.0 / ipratio=1.40 / pbratio=1.30 / aq-mode=2 / aq-strength=0.85 / cutree / zone-count=0 / no-strict-cbr / qg-size=32 / no-rc-grain / qpmax=69 / qpmin=0 / no-const-vbv / sar=1 / overscan=0 / videoformat=5 / range=0 / colorprim=1 / transfer=1 / colormatrix=1 / chromaloc=0 / display-window=0 / cll=0,0 / min-luma=0 / max-luma=1023 / log2-max-poc-lsb=8 / vui-timing-info / vui-hrd-info / slices=1 / no-opt-qp-pps / no-opt-ref-list-length-pps / no-multi-pass-opt-rps / scenecut-bias=0.05 / hist-threshold=0.03 / no-opt-cu-delta-qp / no-aq-motion / no-hdr10 / no-hdr10-opt / no-dhdr10-opt / no-idr-recovery-sei / analysis-reuse-level=0 / analysis-save-reuse-level=0 / analysis-load-reuse-level=0 / scale-factor=0 / refine-intra=0 / refine-inter=0 / refine-mv=1 / refine-ctu-distortion=0 / no-limit-sao / ctu-info=0 / no-lowpass-dct / refine-analysis-type=0 / copy-pic=1 / max-ausize-factor=1.0 / no-dynamic-refine / no-single-sei / no-hevc-aq / no-svt / no-field / qp-adaptation-range=1.00 / scenecut-aware-qp=0conformance-window-offsets / right=0 / bottom=0 / NTM4NzU= / decoder-max-rate=0 / no-vbv-live-multi-pass
  35. Language                                 : English
  36. Default                                  : Yes
  37. Forced                                   : No
  38. Color range                              : Limited
  39. Color primaries                          : BT.709
  40. Transfer characteristics                 : BT.709
  41. Matrix coefficients                      : BT.709
  42. Audio
  43. ID                                       : 2
  44. Format                                   : DTS XLL
  45. Format/Info                              : Digital Theater Systems
  46. Commercial name                          : DTS-HD Master Audio
  47. Codec ID                                 : A_DTS
  48. Duration                                 : 1 h 22 min
  49. Bit rate mode                            : Variable
  50. Bit rate                                 : 901 kb/s
  51. Channel(s)                               : 2 channels
  52. Channel layout                           : L R
  53. Sampling rate                            : 48.0 kHz
  54. Frame rate                               : 93.750 FPS (512 SPF)
  55. Bit depth                                : 16 bits
  56. Compression mode                         : Lossless
  57. Stream size                              : 533 MiB (7%)
  58. Title                                    : Mandarin DTS-HD Master Audio 2.0 @ 901 kbps
  59. Language                                 : Chinese
  60. Default                                  : Yes
  61. Forced                                   : No
  62. Text #1
  63. ID                                       : 3
  64. Format                                   : PGS
  65. Codec ID                                 : S_HDMV/PGS
  66. Codec ID/Info                            : Picture based subtitle format used on BDs/HD-DVDs
  67. Duration                                 : 1 h 19 min
  68. Bit rate                                 : 20.5 kb/s
  69. Count of elements                        : 1304
  70. Stream size                              : 11.7 MiB (0%)
  71. Title                                    : Cht/SUP  原盘繁体
  72. Language                                 : Chinese
  73. Default                                  : Yes
  74. Forced                                   : No
  75. Text #2
  76. ID                                       : 4
  77. Format                                   : PGS
  78. Codec ID                                 : S_HDMV/PGS
  79. Codec ID/Info                            : Picture based subtitle format used on BDs/HD-DVDs
  80. Duration                                 : 1 h 19 min
  81. Bit rate                                 : 19.4 kb/s
  82. Count of elements                        : 1288
  83. Stream size                              : 11.0 MiB (0%)
  84. Title                                    : Eng/SUP
  85. Language                                 : English
  86. Default                                  : No
  87. Forced                                   : No
  88. Menu
  89. 00:00:00.000                             : en:第 01 章
  90. 00:10:29.125                             : en:第 02 章
  91. 00:21:01.542                             : en:第 03 章
  92. 00:31:26.417                             : en:第 04 章
  93. 00:41:31.417                             : en:第 05 章
  94. 00:50:16.458                             : en:第 06 章
  95. 01:02:13.500                             : en:第 07 章
  96. 01:12:11.917                             : en:第 08 章
复制代码


154135gzqd2pehrave52a5.jpeg

154135spjj30mn6707p77j.jpeg



Hao8k.cn提示您 点击下方附件名称 即可开始下载

苏州河[国语音轨/繁英字幕].Suzhou.River.2000.BluRay.1080p.DTS-HD.MA.2.0.x265.10bit-ALT 7.42GB

苏州河[国语音轨 繁英字幕].Suzhou.River.2000.BluRay.1080p.DTS-HD.MA.2.0.x265.10bi.torrent (19.5 KB, 下载次数: 0)
回复

使用道具 举报

您需要登录后才可以回帖 登录 | 立即注册

本版积分规则

蓝光电影网内容部分由用户自主分享和转载自互联网,转载目的在于传递更多信息,并不代表本网赞同其观点和对其真实性负责。 如有侵权、违反国家法律政策行为,请联系我们,我们会第一时间及时清除和处理!
移动端
  • 扫码访问小程序
  • 扫码访问手机端

Powered by 蓝光电影网 X3.4© 2021-2022 Hao8k.cn |网站地图