游客您好
第三方账号登陆
  • 点击联系客服

    在线时间:8:00-16:00

    电子邮件

    lanniao@4kpro.cn
  • 扫描二维码

    访问小程序

  • 扫描二维码

    访问手机版

推荐阅读
Hao8k资源组
未知星球 | 未知职业
  • 关注0
  • 粉丝1
  • 帖子58083
精选帖子
开启左侧

[剧情片] 垫底辣妹[繁英字幕].Flying.Colors.2015.BluRay.1080p.TrueHD.5.1.x265.10bit-ALT 9.45GB

[复制链接]
Hao8k资源组 发表于 2022-5-23 13:40:58 | 显示全部楼层 |阅读模式 打印 上一主题 下一主题

马上注册 Hao8k.cn ,获得更好的体验,让你轻松玩转Hao8k

您需要 登录 才可以下载或查看,没有帐号?立即注册

x
153934z4q62ep0axxjaz2z.jpeg


译  名 垫底辣妹 / 奇迹补习社(港) / 奇迹补习班 / 垫底女生 / Biri Girl / Flying Colors
片  名 ビリギャル
年  代 2015
产  地 日本
类  别 剧情 / 家庭
语  言 日语
上映日期 2016-04-14(中国大陆) / 2015-05-01(日本)
豆瓣评分 8.3/10 (393311人评价)
片  长 117分钟
导  演 土井裕泰 Nobuhiro Doi
编  剧 桥本裕志 Hiroshi Hashimoto
       坪田信贵 Nobutaka Tsubota
演  员 有村架纯 Kasumi Arimura
       伊藤淳史 Atsushi It?
       吉田羊 Y? Yoshida
       田中哲司 Tetsushi Tanaka
       野村周平 Shuhei Nomura
       安田显 Ken Yasuda
       阿部菜渚美 Nanami Abe
       中村靖日 Yasuhi Nakamura
       矢岛健一 Kenichi Yajima
       峰村理惠 Rie Minemura
       白土七菜 Nana Shirato
       奥田心 Kokoro Okuda
       蔵下穂波 Honami Kurashita
       大内田悠平 Y?hei Ohuchida
       县森鱼 Morio Agata
       川上凛子 Rinko Kawakami
       松井爱莉 Airi Matsui
       山田望叶 Mochika Yamada
       五辻圭 Kei Gotsuji

简  介

长相甜美的高中女孩工藤沙耶加(有村架纯 饰)在家并不受父亲待见,父亲一心要把弟弟培养成棒球手,而疏于对女儿们的呵护。沙耶加所在的高中有内部升学的制度,因此她终日和小姐妹们吃喝玩乐,学习掉到了全年级倒数第一也毫不为意。温柔勤苦的妈妈(吉田羊 饰)经常被校方找去说教,她为女儿的未来焦虑万分,因此将沙耶加送到了坪田(伊藤淳史 饰)所开办的补习班。经过水平测试,沙耶加实际只有小学四年级的水平,不过开朗自信的坪田不以为意,他以特有的方式打开女孩的心防,两人很快成为好朋友。在坪田的帮助下,沙耶加对学习的态度逐渐浓厚,后来更立下了考取庆应大学的宏愿。这是丑小鸭绝地逆袭的真实故事……                                    
                                本片根据《年级倒数第一的辣妹一年内偏差值提升40以上并考入庆应大学的故事》改编,该书取材自真人真事,由担任影片女主角原型小林沙耶加的私塾教师坪田信贵撰写。


获奖情况 (共8项)

第39届日本电影学院奖 (2016)
  最佳女主角(提名)
   └──有村架纯
  最佳男配角(提名)
   └──伊藤淳史
  最佳女配角(提名)
   └──吉田羊
  最佳新人
   └──有村架纯
  第40届报知映画赏 (2015)
  最佳女配角
   └──吉田羊
  第3届豆瓣电影年度榜单 (2016)
  4月最受关注电影(提名)
  第2届豆瓣电影年度榜单 (2015)
  评分最高的日本电影(提名)
  第6届豆瓣电影鑫像奖 (2016)
  鑫豆单元 最佳日本电影(提名)


影片参数
  1. ##### MediaInfo ######
  2. General
  3. Unique ID                                : 179078480351691374497234135712342815914 (0x86B942C1DA7966E97B41686B7D5134AA)
  4. Complete name                            : Flying.Colors.2015.BluRay.1080p.TrueHD.5.1.x265.10bit-ALT.mkv
  5. Format                                   : Matroska
  6. Format version                           : Version 4
  7. File size                                : 9.45 GiB
  8. Duration                                 : 1 h 56 min
  9. Overall bit rate mode                    : Variable
  10. Overall bit rate                         : 11.6 Mb/s
  11. Encoded date                             : UTC 2022-05-13 11:02:32
  12. Writing application                      : mkvmerge v49.0.0 (''Sick Of Losing Soulmates'') 64-bit
  13. Writing library                          : libebml v1.4.0 + libmatroska v1.6.1
  14. Video
  15. ID                                       : 1
  16. Format                                   : HEVC
  17. Format/Info                              : High Efficiency Video Coding
  18. Format profile                           : Main [email protected]@High
  19. Codec ID                                 : V_MPEGH/ISO/HEVC
  20. Duration                                 : 1 h 56 min
  21. Bit rate                                 : 7 835 kb/s
  22. Width                                    : 1 920 pixels
  23. Height                                   : 1 036 pixels
  24. Display aspect ratio                     : 1.85:1
  25. Frame rate mode                          : Constant
  26. Frame rate                               : 23.976 (24000/1001/53875) FPS
  27. Color space                              : YUV
  28. Chroma subsampling                       : 4:2:0
  29. Bit depth                                : 10 bits
  30. Bits/(Pixel*Frame)                       : 0.164
  31. Stream size                              : 6.37 GiB (67%)
  32. Title                                    : HEVC, [email protected]@High, 24/1.001 fps @ 7834 kbps
  33. Writing library                          : x265 3.5+36-1f2c8da77:[Windows][GCC 11.2.0][64 bit] 10bit
  34. Encoding settings                        : cpuid=538751111039 / frame-threads=4 / numa-pools=20 / wpp / no-pmode / no-pme / no-psnr / no-ssim / log-level=2 / input-csp=1 / input-res=1920x1036 / interlace=0 / total-frames=167429 / level-idc=51 / high-tier=1 / uhd-bd=0 / ref=5 / no-allow-non-conformance / no-repeat-headers / annexb / no-aud / no-eob / no-eos / no-hrd / info / hash=0 / no-temporal-layers / open-gop / min-keyint=24 / keyint=240 / gop-lookahead=0 / bframes=6 / b-adapt=2 / b-pyramid / bframe-bias=0 / rc-lookahead=40 / lookahead-slices=0 / NTM4NzU=uuDQuD2mJt9fsCf / scenecut=40 / no-hist-scenecut / radl=0 / no-splice / no-intra-refresh / ctu=32 / min-cu-size=8 / no-rect / no-amp / max-tu-size=32 / tu-inter-depth=3 / tu-intra-depth=3 / limit-tu=4 / rdoq-level=2 / dynamic-rd=0.00 / no-ssim-rd / signhide / no-tskip / nr-intra=0 / nr-inter=0 / no-constrained-intra / no-strong-intra-smoothing / max-merge=4 / limit-refs=1 / limit-modes / me=3 / subme=4 / merange=25 / temporal-mvp / no-frame-dup / no-hme / weightp / weightb / no-analyze-src-pics / deblock=-3:-3 / no-sao / no-sao-non-deblock / rd=6 / selective-sao=0 / no-early-skip / rskip / no-fast-intra / no-tskip-fast / no-cu-lossless / b-intra / no-splitrd-skip / rdpenalty=0 / psy-rd=2.00 / psy-rdoq=1.00 / no-rd-refine / no-lossless / cbqpoffs=-2 / crqpoffs=-2 / rc=crf / crf=17.0 / qcomp=0.65 / qpstep=4 / stats-write=0 / stats-read=0 / vbv-maxrate=80000 / vbv-bufsize=80000 / vbv-init=0.9 / min-vbv-fullness=50.0 / max-vbv-fullness=80.0 / crf-max=0.0 / crf-min=0.0 / ipratio=1.40 / pbratio=1.30 / aq-mode=2 / aq-strength=0.85 / cutree / zone-count=0 / no-strict-cbr / qg-size=32 / no-rc-grain / qpmax=69 / qpmin=0 / no-const-vbv / sar=1 / overscan=0 / videoformat=5 / range=0 / colorprim=1 / transfer=1 / colormatrix=1 / chromaloc=0 / display-window=0 / cll=0,0 / min-luma=0 / max-luma=1023 / log2-max-poc-lsb=8 / vui-timing-info / vui-hrd-info / slices=1 / no-opt-qp-pps / no-opt-ref-list-length-pps / no-multi-pass-opt-rps / scenecut-bias=0.05 / hist-threshold=0.03 / no-opt-cu-delta-qp / no-aq-motion / no-hdr10 / no-hdr10-opt / no-dhdr10-opt / no-idr-recovery-sei / analysis-reuse-level=0 / analysis-save-reuse-level=0 / analysis-load-reuse-level=0 / scale-factor=0 / refine-intra=0 / refine-inter=0 / refine-mv=1 / refine-ctu-distortion=0 / no-limit-sao / ctu-info=0 / no-lowpass-dct / refine-analysis-type=0 / copy-pic=1 / max-ausize-factor=1.0 / no-dynamic-refine / no-single-sei / no-hevc-aq / no-svt / no-field / qp-adaptation-range=1.00 / scenecut-aware-qp=0conformance-window-offsets / right=0 / bottom=0 / NTM4NzU= / decoder-max-rate=0 / no-vbv-live-multi-pass
  35. Language                                 : English
  36. Default                                  : Yes
  37. Forced                                   : No
  38. Color range                              : Limited
  39. Color primaries                          : BT.709
  40. Transfer characteristics                 : BT.709
  41. Matrix coefficients                      : BT.709
  42. Audio #1
  43. ID                                       : 2
  44. Format                                   : MLP FBA
  45. Format/Info                              : Meridian Lossless Packing FBA
  46. Commercial name                          : Dolby TrueHD
  47. Codec ID                                 : A_TRUEHD
  48. Duration                                 : 1 h 56 min
  49. Bit rate mode                            : Variable
  50. Bit rate                                 : 3 017 kb/s
  51. Maximum bit rate                         : 4 986 kb/s
  52. Channel(s)                               : 6 channels
  53. Channel layout                           : L R C LFE Ls Rs
  54. Sampling rate                            : 96.0 kHz
  55. Frame rate                               : 1 200.000 FPS (80 SPF)
  56. Compression mode                         : Lossless
  57. Stream size                              : 2.45 GiB (26%)
  58. Title                                    : Japanese Dolby TrueHD Audio 5.1 @ 3017 kbps
  59. Language                                 : Japanese
  60. Default                                  : Yes
  61. Forced                                   : No
  62. Audio #2
  63. ID                                       : 3
  64. Format                                   : AC-3
  65. Format/Info                              : Audio Coding 3
  66. Commercial name                          : Dolby Digital
  67. Codec ID                                 : A_AC3
  68. Duration                                 : 1 h 56 min
  69. Bit rate mode                            : Constant
  70. Bit rate                                 : 640 kb/s
  71. Channel(s)                               : 6 channels
  72. Channel layout                           : L R C LFE Ls Rs
  73. Sampling rate                            : 48.0 kHz
  74. Frame rate                               : 31.250 FPS (1536 SPF)
  75. Compression mode                         : Lossy
  76. Stream size                              : 533 MiB (6%)
  77. Title                                    : Japanese Dolby Digital Audio 5.1 @ 640 kbps
  78. Language                                 : Japanese
  79. Service kind                             : Complete Main
  80. Default                                  : No
  81. Forced                                   : No
  82. Text #1
  83. ID                                       : 4
  84. Format                                   : PGS
  85. Codec ID                                 : S_HDMV/PGS
  86. Codec ID/Info                            : Picture based subtitle format used on BDs/HD-DVDs
  87. Duration                                 : 1 h 55 min
  88. Bit rate                                 : 28.8 kb/s
  89. Count of elements                        : 2417
  90. Stream size                              : 23.8 MiB (0%)
  91. Title                                    : Cht/SUP  原盘繁体
  92. Language                                 : Chinese
  93. Default                                  : Yes
  94. Forced                                   : No
  95. Text #2
  96. ID                                       : 5
  97. Format                                   : PGS
  98. Codec ID                                 : S_HDMV/PGS
  99. Codec ID/Info                            : Picture based subtitle format used on BDs/HD-DVDs
  100. Duration                                 : 1 h 55 min
  101. Bit rate                                 : 33.7 kb/s
  102. Count of elements                        : 2430
  103. Stream size                              : 27.9 MiB (0%)
  104. Title                                    : Eng/SUP
  105. Language                                 : English
  106. Default                                  : No
  107. Forced                                   : No
  108. Menu
  109. 00:00:00.000                             : en:第 01 章
  110. 00:08:49.571                             : en:第 02 章
  111. 00:19:44.934                             : en:第 03 章
  112. 00:32:09.886                             : en:第 04 章
  113. 00:38:44.989                             : en:第 05 章
  114. 00:47:42.568                             : en:第 06 章
  115. 00:57:58.600                             : en:第 07 章
  116. 01:05:58.288                             : en:第 08 章
  117. 01:16:04.477                             : en:第 09 章
  118. 01:28:35.018                             : en:第 10 章
  119. 01:40:17.053                             : en:第 11 章
  120. 01:45:46.090                             : en:第 12 章
复制代码


153934htle9lez9t4z4ylg.jpeg

153934rjk1y7xuqx779muq.jpeg



Hao8k.cn提示您 点击下方附件名称 即可开始下载

垫底辣妹[繁英字幕].Flying.Colors.2015.BluRay.1080p.TrueHD.5.1.x265.10bit-ALT 9.45GB

垫底辣妹[繁英字幕].Flying.Colors.2015.BluRay.1080p.TrueHD.5.1.x265.10bit-ALT.torrent (24.57 KB, 下载次数: 0)
回复

使用道具 举报

您需要登录后才可以回帖 登录 | 立即注册

本版积分规则

蓝光电影网内容部分由用户自主分享和转载自互联网,转载目的在于传递更多信息,并不代表本网赞同其观点和对其真实性负责。 如有侵权、违反国家法律政策行为,请联系我们,我们会第一时间及时清除和处理!
移动端
  • 扫码访问小程序
  • 扫码访问手机端

Powered by 蓝光电影网 X3.4© 2021-2022 Hao8k.cn |网站地图