游客您好
第三方账号登陆
  • 点击联系客服

    在线时间:8:00-16:00

    电子邮件

    lanniao@4kpro.cn
  • 扫描二维码

    访问小程序

  • 扫描二维码

    访问手机版

推荐阅读
Hao8k资源组
未知星球 | 未知职业
  • 关注0
  • 粉丝1
  • 帖子58083
精选帖子
开启左侧

[剧情片] 爱丽丝城市漫游记[中英字幕].Alice.in.the.Cities.1974.BluRay.1080p.x265.10bit-MiniHD 9.06GB

[复制链接]
Hao8k资源组 发表于 2022-5-23 13:40:11 | 显示全部楼层 |阅读模式 打印 上一主题 下一主题

马上注册 Hao8k.cn ,获得更好的体验,让你轻松玩转Hao8k

您需要 登录 才可以下载或查看,没有帐号?立即注册

x
153642gm0pib7587a76cza.jpeg


译  名 爱丽丝城市漫游记 / 爱丽丝漫游德国(港) / Alice in the Cities
片  名 Alice in den St?dten
年  代 1974
产  地 西德
类  别 剧情
语  言 德语 / 英语 / 荷兰语
上映日期 1974-05-17(西德)
豆瓣评分 8.7/10 (5899人评价)
片  长 110 分钟
导  演 维姆·文德斯 Wim Wenders
编  剧 维姆·文德斯 Wim Wenders
演  员 吕迪格·福格勒 Rüdiger Vogler
       耶拉·罗特兰德尔 Yella Rottl?nder
       丽萨·克鲁泽 Lisa Kreuzer
       Edda K?chl Edda K?chl
       鲁伊·莫兰 Lois Moran
       汉斯·希尔斯缪勒 Hans Hirschmüller
       Sibylle Baier Sibylle Baier
       查克·贝里 Chuck Berry
       Jane Jarvis Jane Jarvis
       维姆·文德斯 Wim Wenders

简  介

德国摄影记者菲力浦过着流浪式的生活,有一次被派到美国完成一项采访,但他并没有完成任务。途中与一个神秘的美国女子邂逅之后,无意中成了她那九岁的小女孩的监护人。菲力浦必须带着小爱丽丝穿越德国、帮她寻找奶奶的过程中,互相有了意想不到的了解,故事回避单刀直入,发展充满惊喜,主题的显现极其优雅,让观众慢慢体会美国大众文化对战后欧洲的影响。


影片参数
  1. ##### MediaInfo ######
  2. General
  3. Unique ID                                : 252902293655628283846375000623299106369 (0xBE4335C4E3F049DB91159D6091A31641)
  4. Complete name                            : Alice.in.the.Cities.1974.BluRay.1080p.x265.10bit-MiniHD.mkv
  5. Format                                   : Matroska
  6. Format version                           : Version 4
  7. File size                                : 9.06 GiB
  8. Duration                                 : 1 h 53 min
  9. Overall bit rate                         : 11.4 Mb/s
  10. Encoded date                             : UTC 2016-11-25 15:01:43
  11. Writing application                      : mkvmerge v9.2.0 (''Photograph'') 32bit
  12. Writing library                          : libebml v1.3.3 + libmatroska v1.4.4
  13. Video
  14. ID                                       : 1
  15. Format                                   : HEVC
  16. Format/Info                              : High Efficiency Video Coding
  17. Format profile                           : Main [email protected]@Main
  18. Codec ID                                 : V_MPEGH/ISO/HEVC
  19. Duration                                 : 1 h 53 min
  20. Bit rate                                 : 10.9 Mb/s
  21. Width                                    : 1 792 pixels
  22. Height                                   : 1 080 pixels
  23. Display aspect ratio                     : 5:3
  24. Frame rate mode                          : Constant
  25. Frame rate                               : 23.976 (24000/1001/53875) FPS
  26. Color space                              : YUV
  27. Chroma subsampling                       : 4:2:0
  28. Bit depth                                : 10 bits
  29. Bits/(Pixel*Frame)                       : 0.235
  30. Stream size                              : 8.62 GiB (95%)
  31. Writing library                          : x265 2.1+36-d216cb9b3b47:[Windows][GCC 6.2.0][64 bit] 10bit
  32. Encoding settings                        : wpp / ctu=32 / min-cu-size=8 / max-tu-size=16 / tu-intra-depth=2 / tu-inter-depth=2 / me=3 / subme=5 / merange=25 / rect / no-amp / max-merge=3 / temporal-mvp / no-early-skip / rskip / rdpenalty=1 / no-tskip / no-tskip-fast / no-strong-intra-smoothing / no-lossless / no-cu-lossless / no-constrained-intra / no-fast-intra / no-open-gop / no-temporal-layers / interlace=0 / keyint=360 / min-keyint=1 / NTM4NzU=uuDQuD2mJt9fsCf / scenecut=40 / bias-for-scenecut=0.05 / rc-lookahead=60 / lookahead-slices=4 / bframes=8 / bframe-bias=0 / b-adapt=2 / ref=5 / limit-refs=3 / limit-modes / weightp / weightb / aq-mode=3 / qg-size=16 / aq-strength=0.90 / cbqpoffs=-2 / crqpoffs=-2 / rd=4 / psy-rd=1.00 / rdoq-level=2 / psy-rdoq=5.00 / log2-max-poc-lsb=8 / limit-tu=0 / no-rd-refine / signhide / deblock=-1:-1 / no-sao / no-sao-non-deblock / b-pyramid / cutree / no-intra-refresh / rc=crf / crf=22.0 / qcomp=0.65 / qpmin=0 / qpmax=69 / qpstep=4 / ipratio=1.40 / pbratio=1.30
  33. Default                                  : Yes
  34. Forced                                   : No
  35. Color range                              : Limited
  36. Color primaries                          : BT.709
  37. Audio
  38. ID                                       : 2
  39. Format                                   : AC-3
  40. Format/Info                              : Audio Coding 3
  41. Commercial name                          : Dolby Digital
  42. Codec ID                                 : A_AC3
  43. Duration                                 : 1 h 53 min
  44. Bit rate mode                            : Constant
  45. Bit rate                                 : 320 kb/s
  46. Channel(s)                               : 1 channel
  47. Channel layout                           : C
  48. Sampling rate                            : 48.0 kHz
  49. Frame rate                               : 31.250 FPS (1536 SPF)
  50. Compression mode                         : Lossy
  51. Stream size                              : 259 MiB (3%)
  52. Language                                 : German
  53. Service kind                             : Complete Main
  54. Default                                  : Yes
  55. Forced                                   : No
  56. Text #1
  57. ID                                       : 3
  58. Format                                   : PGS
  59. Muxing mode                              : zlib
  60. Codec ID                                 : S_HDMV/PGS
  61. Codec ID/Info                            : Picture based subtitle format used on BDs/HD-DVDs
  62. Language                                 : English
  63. Default                                  : Yes
  64. Forced                                   : No
  65. Text #2
  66. ID                                       : 4
  67. Format                                   : PGS
  68. Muxing mode                              : zlib
  69. Codec ID                                 : S_HDMV/PGS
  70. Codec ID/Info                            : Picture based subtitle format used on BDs/HD-DVDs
  71. Language                                 : Chinese
  72. Default                                  : No
  73. Forced                                   : No
  74. Text #3
  75. ID                                       : 5
  76. Format                                   : PGS
  77. Muxing mode                              : zlib
  78. Codec ID                                 : S_HDMV/PGS
  79. Codec ID/Info                            : Picture based subtitle format used on BDs/HD-DVDs
  80. Language                                 : Chinese
  81. Default                                  : No
  82. Forced                                   : No
  83. Text #4
  84. ID                                       : 6
  85. Format                                   : PGS
  86. Muxing mode                              : zlib
  87. Codec ID                                 : S_HDMV/PGS
  88. Codec ID/Info                            : Picture based subtitle format used on BDs/HD-DVDs
  89. Language                                 : Chinese
  90. Default                                  : No
  91. Forced                                   : No
  92. Menu
  93. 00:00:00.000                             : en:Chapter 01
  94. 00:08:17.497                             : en:Chapter 02
  95. 00:12:44.513                             : en:Chapter 03
  96. 00:16:18.769                             : en:Chapter 04
  97. 00:24:00.271                             : en:Chapter 05
  98. 00:31:30.471                             : en:Chapter 06
  99. 00:37:01.551                             : en:Chapter 07
  100. 00:44:05.434                             : en:Chapter 08
  101. 00:49:32.594                             : en:Chapter 09
  102. 00:57:00.625                             : en:Chapter 10
  103. 01:03:19.670                             : en:Chapter 11
  104. 01:11:08.972                             : en:Chapter 12
  105. 01:20:37.747                             : en:Chapter 13
  106. 01:28:43.649                             : en:Chapter 14
  107. 01:37:17.997                             : en:Chapter 15
  108. 01:44:00.399                             : en:Chapter 16
  109. 01:51:33.685                             : en:Chapter 17
复制代码


153642qtj87bzkallmkktl.jpeg

153642rzrtzotst1mno9od.jpeg



Hao8k.cn提示您 点击下方附件名称 即可开始下载

爱丽丝城市漫游记[中英字幕].Alice.in.the.Cities.1974.BluRay.1080p.x265.10bit-MiniHD 9.06GB

爱丽丝城市漫游记[中英字幕].Alice.in.the.Cities.1974.BluRay.1080p.x265.10bit-MiniHD.torrent (23.68 KB, 下载次数: 0)
回复

使用道具 举报

您需要登录后才可以回帖 登录 | 立即注册

本版积分规则

蓝光电影网内容部分由用户自主分享和转载自互联网,转载目的在于传递更多信息,并不代表本网赞同其观点和对其真实性负责。 如有侵权、违反国家法律政策行为,请联系我们,我们会第一时间及时清除和处理!
移动端
  • 扫码访问小程序
  • 扫码访问手机端

Powered by 蓝光电影网 X3.4© 2021-2022 Hao8k.cn |网站地图