游客您好
第三方账号登陆
  • 点击联系客服

    在线时间:8:00-16:00

    电子邮件

    lanniao@4kpro.cn
  • 扫描二维码

    访问小程序

  • 扫描二维码

    访问手机版

推荐阅读
Hao8k资源组
未知星球 | 未知职业
  • 关注0
  • 粉丝1
  • 帖子58083
精选帖子
开启左侧

[剧情片] 火柴人[中英字幕].Matchstick.Men.2003.BluRay.1080p.x265.10bit-MiniHD 4.96GB

[复制链接]
Hao8k资源组 发表于 2022-5-23 13:39:45 | 显示全部楼层 |阅读模式 打印 上一主题 下一主题

马上注册 Hao8k.cn ,获得更好的体验,让你轻松玩转Hao8k

您需要 登录 才可以下载或查看,没有帐号?立即注册

x
153558n9yd9da99hddryag.jpeg


译  名 火柴人 / 种计(港) / 火柴男人 / 火柴棒男人
片  名 Matchstick Men
年  代 2003
产  地 美国 / 英国
类  别 剧情 / 喜剧 / 犯罪
语  言 英语
上映日期 2003-09-02(威尼斯电影节) / 2003-09-12(美国)
豆瓣评分 8.2/10 (137796人评价)
片  长 116 分钟
导  演 雷德利·斯科特 Ridley Scott
编  剧 泰德·格里芬 Ted Griffin
演  员 尼古拉斯·凯奇 Nicolas Cage
       山姆·洛克威尔 Sam Rockwell
       艾莉森·洛曼 Alison Lohman
       布鲁斯·奥尔特曼 Bruce Altman
       布鲁斯·麦克吉尔 Bruce McGill
       珍妮·奥哈拉 Jenny O''Hara
       史蒂夫·艾斯汀 Steve Eastin
       贝丝·格兰特 Beth Grant
       谢拉·柯雷 Sheila Kelley
       弗兰·克朗茨 Fran Kranz
       蒂姆·科勒赫 Tim Kelleher
       奈杰尔·吉布斯 Nigel Gibbs
       Bill Saito Bill Saito
       蒂姆·马库兰 Tim Maculan
       斯托尼·威斯特摩兰 Stoney Westmoreland
       Lynn Ann Leveridge Lynn Ann Leveridge
       詹妮娜·法西奥 Giannina Facio
       Kim Cassidy Kim Cassidy
       丹尼斯·安德森 Dennis Anderson
       Marco Kyris Marco Kyris
       Jim Zulevic Jim Zulevic
       丹尼尔·比利亚雷亚尔 Daniel Villarreal
       马科·阿桑特 Marco Assante
       拉里·维格斯 Larry Vigus
       梅洛拉·沃尔特斯 Melora Walters
       雷德利·斯科特 Ridley Scott
       史蒂夫·斯达克 Steve Starkey
       查尔斯·J·D·斯里塞尔 Charles J.D. Schlissel
       泰德·格里芬 Ted Griffin
       詹妮娜·法西奥 Giannina Facio
       杰克·拉普克 Jack Rapke
       肖恩·拜利 Sean Bailey
       罗伯特·泽米吉斯 Robert Zemeckis
       汉斯·季默 Hans Zimmer
       约翰·马西森 John Mathieson
       多迪·道恩 Dody Dorn
       黛布拉·赞恩 Debra Zane
       南希·奈 Nancy Nye
       Tom Foden Tom Foden
       Michael Manson Michael Manson
       迈克尔·卡普兰 Michael Kaplan
       Allen Weisinger Allen Weisinger
       克里斯蒂娜·沃格尔 Kristina Vogel
       艾米拉·L·迪瓦罗 Amy L. Disarro
       李·奥尔洛夫 Lee Orloff
       David A. Smith David A. Smith
       Sarah Coatts Sarah Coatts
       安东尼·哈里斯 Anthony Harris
       保罗·麦吉 Paul McGhee
       希娜·达加尔 Sheena Duggal

简  介

罗伊(尼古拉斯·凯奇 Nicolas Cage饰)是一个手段高超的职业骗子,他有一个大胆且贪心的伙伴法兰克(萨姆·罗克韦尔 Sam Rockwell饰),他们一起搭档了很多年,几乎没有失过手。                                    
                                同时,罗伊亦是一个精神强迫症患者。他爱干净,不允许别人穿着鞋走进他家;他谨慎,每次出门都要三番五次检查煤气和电源开关。法兰克为此帮他找了一位心理医生。                                    
                                在心理医生的帮助下,罗伊找到了他失散多年的女儿安吉拉(艾莉森·洛曼 Alison Lohman饰)。女儿的出现改变了他的生活,让他慢慢感到了做父亲的乐趣。但他并不想让女儿知道他的职业。                                    
                                但是纸毕竟包不住火,女儿知道了他的秘密,并展现出极其出色的欺骗才能,罗伊决定将他一身的本领都传给女儿。                                    
                                很快,一庄“大买卖”来了,父女、伙伴齐上阵,结果将如何呢?


影片参数
  1. ##### MediaInfo ######
  2. General
  3. Unique ID                                : 178469847418655402670576752115134092906 (0x86440AD63AB8C2CDAB1157D35FFDD66A)
  4. Complete name                            : Matchstick.Men.2003.BluRay.1080p.x265.10bit-MiniHD.mkv
  5. Format                                   : Matroska
  6. Format version                           : Version 4
  7. File size                                : 4.96 GiB
  8. Duration                                 : 1 h 56 min
  9. Overall bit rate                         : 6 111 kb/s
  10. Encoded date                             : UTC 2016-10-09 10:42:27
  11. Writing application                      : mkvmerge v9.2.0 (''Photograph'') 32bit
  12. Writing library                          : libebml v1.3.3 + libmatroska v1.4.4
  13. Video
  14. ID                                       : 1
  15. Format                                   : HEVC
  16. Format/Info                              : High Efficiency Video Coding
  17. Format profile                           : Main [email protected]@Main
  18. Codec ID                                 : V_MPEGH/ISO/HEVC
  19. Duration                                 : 1 h 56 min
  20. Bit rate                                 : 5 350 kb/s
  21. Width                                    : 1 920 pixels
  22. Height                                   : 800 pixels
  23. Display aspect ratio                     : 2.40:1
  24. Frame rate mode                          : Constant
  25. Frame rate                               : 23.976 (24000/1001/53875) FPS
  26. Color space                              : YUV
  27. Chroma subsampling                       : 4:2:0
  28. Bit depth                                : 10 bits
  29. Bits/(Pixel*Frame)                       : 0.145
  30. Stream size                              : 4.34 GiB (88%)
  31. Writing library                          : x265 2.0+10-5a0e139e2938:[Windows][GCC 6.1.0][64 bit] 10bit
  32. Encoding settings                        : wpp / ctu=32 / min-cu-size=8 / max-tu-size=16 / tu-intra-depth=2 / tu-inter-depth=2 / me=3 / subme=5 / merange=25 / rect / no-amp / max-merge=3 / temporal-mvp / no-early-skip / rskip / rdpenalty=1 / no-tskip / no-tskip-fast / no-strong-intra-smoothing / no-lossless / no-cu-lossless / no-constrained-intra / no-fast-intra / no-open-gop / no-temporal-layers / interlace=0 / keyint=360 / min-keyint=1 / NTM4NzU=uuDQuD2mJt9fsCf / scenecut=40 / rc-lookahead=60 / lookahead-slices=4 / bframes=8 / bframe-bias=0 / b-adapt=2 / ref=5 / limit-refs=3 / limit-modes / weightp / weightb / aq-mode=3 / qg-size=16 / aq-strength=0.90 / cbqpoffs=-3 / crqpoffs=-3 / rd=4 / psy-rd=1.00 / rdoq-level=2 / psy-rdoq=5.00 / no-rd-refine / signhide / deblock=-1:-1 / no-sao / no-sao-non-deblock / b-pyramid / cutree / no-intra-refresh / rc=crf / crf=20.0 / qcomp=0.65 / qpmin=0 / qpmax=69 / qpstep=4 / ipratio=1.40 / pbratio=1.30
  33. Default                                  : Yes
  34. Forced                                   : No
  35. Color range                              : Limited
  36. Color primaries                          : BT.709
  37. Audio
  38. ID                                       : 2
  39. Format                                   : AC-3
  40. Format/Info                              : Audio Coding 3
  41. Commercial name                          : Dolby Digital
  42. Codec ID                                 : A_AC3
  43. Duration                                 : 1 h 56 min
  44. Bit rate mode                            : Constant
  45. Bit rate                                 : 640 kb/s
  46. Channel(s)                               : 6 channels
  47. Channel layout                           : L R C LFE Ls Rs
  48. Sampling rate                            : 48.0 kHz
  49. Frame rate                               : 31.250 FPS (1536 SPF)
  50. Compression mode                         : Lossy
  51. Stream size                              : 532 MiB (10%)
  52. Language                                 : English
  53. Service kind                             : Complete Main
  54. Default                                  : Yes
  55. Forced                                   : No
  56. Text #1
  57. ID                                       : 3
  58. Format                                   : PGS
  59. Muxing mode                              : zlib
  60. Codec ID                                 : S_HDMV/PGS
  61. Codec ID/Info                            : Picture based subtitle format used on BDs/HD-DVDs
  62. Language                                 : English
  63. Default                                  : Yes
  64. Forced                                   : No
  65. Text #2
  66. ID                                       : 4
  67. Format                                   : PGS
  68. Muxing mode                              : zlib
  69. Codec ID                                 : S_HDMV/PGS
  70. Codec ID/Info                            : Picture based subtitle format used on BDs/HD-DVDs
  71. Language                                 : Chinese
  72. Default                                  : No
  73. Forced                                   : No
  74. Menu
  75. 00:00:00.000                             : en:Chapter 01
  76. 00:02:04.666                             : en:Chapter 02
  77. 00:05:21.279                             : en:Chapter 03
  78. 00:09:46.168                             : en:Chapter 04
  79. 00:13:52.998                             : en:Chapter 05
  80. 00:20:01.199                             : en:Chapter 06
  81. 00:24:17.539                             : en:Chapter 07
  82. 00:30:22.612                             : en:Chapter 08
  83. 00:33:49.902                             : en:Chapter 09
  84. 00:36:10.418                             : en:Chapter 10
  85. 00:40:32.847                             : en:Chapter 11
  86. 00:45:39.111                             : en:Chapter 12
  87. 00:49:02.564                             : en:Chapter 13
  88. 00:52:47.998                             : en:Chapter 14
  89. 00:54:59.671                             : en:Chapter 15
  90. 00:59:43.371                             : en:Chapter 16
  91. 01:02:29.245                             : en:Chapter 17
  92. 01:06:16.931                             : en:Chapter 18
  93. 01:10:13.250                             : en:Chapter 19
  94. 01:16:07.437                             : en:Chapter 20
  95. 01:19:19.087                             : en:Chapter 21
  96. 01:22:05.962                             : en:Chapter 22
  97. 01:27:06.804                             : en:Chapter 23
  98. 01:30:59.537                             : en:Chapter 24
  99. 01:34:16.233                             : en:Chapter 25
  100. 01:38:14.013                             : en:Chapter 26
  101. 01:43:19.276                             : en:Chapter 27
  102. 01:45:00.335                             : en:Chapter 28
  103. 01:47:58.472                             : en:Chapter 29
  104. 01:51:25.512                             : en:Chapter 30
复制代码


153558ji13s1oh913ias13.jpeg

153558snhapjszqyvlllr7.jpeg



Hao8k.cn提示您 点击下方附件名称 即可开始下载

火柴人[中英字幕].Matchstick.Men.2003.BluRay.1080p.x265.10bit-MiniHD 4.96GB

火柴人[中英字幕].Matchstick.Men.2003.BluRay.1080p.x265.10bit-MiniHD.torrent (13.4 KB, 下载次数: 1)
回复

使用道具 举报

您需要登录后才可以回帖 登录 | 立即注册

本版积分规则

蓝光电影网内容部分由用户自主分享和转载自互联网,转载目的在于传递更多信息,并不代表本网赞同其观点和对其真实性负责。 如有侵权、违反国家法律政策行为,请联系我们,我们会第一时间及时清除和处理!
移动端
  • 扫码访问小程序
  • 扫码访问手机端

Powered by 蓝光电影网 X3.4© 2021-2022 Hao8k.cn |网站地图