游客您好
第三方账号登陆
  • 点击联系客服

    在线时间:8:00-16:00

    电子邮件

    lanniao@4kpro.cn
  • 扫描二维码

    访问小程序

  • 扫描二维码

    访问手机版

推荐阅读
Hao8k资源组
未知星球 | 未知职业
  • 关注0
  • 粉丝1
  • 帖子58083
精选帖子
开启左侧

[喜剧片] 像素大战[简繁英字幕].Pixels.2015.BluRay.1080p.TrueHD.Atmos.7.1.x265.10bit-ALT 9.23GB

[复制链接]
Hao8k资源组 发表于 2022-5-23 13:39:20 | 显示全部楼层 |阅读模式 打印 上一主题 下一主题

马上注册 Hao8k.cn ,获得更好的体验,让你轻松玩转Hao8k

您需要 登录 才可以下载或查看,没有帐号?立即注册

x
153310y357tgez8878ey3x.jpeg


译  名 像素大战 / 世界大对战(台) / 屈机起格命(港) / 像素入侵 / 天煞:像素之战 / 像素之战
片  名 Pixels
年  代 2015
产  地 美国 / 中国大陆
类  别 喜剧 / 动作 / 科幻
语  言 英语 / 印地语 / 日语
上映日期 2015-09-15(中国大陆) / 2015-07-24(美国)
豆瓣评分 6.3/10 (90360人评价)
片  长 106分钟
导  演 克里斯·哥伦布 Chris Columbus
编  剧 提姆·赫利希 Tim Herlihy
       蒂莫斯·道灵 Timothy Dowling
       帕特里克·简 Patrick Jean
       亚当·桑德勒 Adam Sandler
演  员 亚当·桑德勒 Adam Sandler
       凯文·詹姆斯 Kevin James
       米歇尔·莫纳汉 Michelle Monaghan
       彼特·丁拉基 Peter Dinklage
       乔什·加德 Josh Gad
       布莱恩·考克斯 Brian Cox
       马特·林茨 Matt Lintz
       肖恩·宾 Sean Bean
       简·科拉克斯基 Jane Krakowski
       丹·艾克罗伊德 Dan Aykroyd
       艾菲恩·克洛科特 Affion Crockett
       莱妮·卡赞 Lainie Kazan
       艾什莉·本森 Ashley Benson
       玛莎·斯图尔特 Martha Stewart
       丹尼斯·秋山 Denis Akiyama
       汤姆·麦卡锡 Tom McCarthy
       提姆·赫利希 Tim Herlihy
       杰姬·桑德勒 Jackie Sandler
       杰瑞德·桑德勒 Jared Sandler
       威廉·S·泰勒 William S. Taylor
       罗丝·洛林斯 Rose Rollins
       塔克·斯莫尔伍德 Tucker Smallwood
       塞蕾娜·威廉姆斯 Serena Williams
       艾伦·卡瓦特 Allen Covert
       珊妮·桑德勒 Sunny Sandler
       Mark Whalen Mark Whalen
       Bill Lake Bill Lake
       岩谷彻 Toru Iwatani
       费奥纳·肖 Fiona Shaw
       比利·维斯特 Billy West
       马泰 Tzi Ma
       丹·帕特里克 Dan Patrick
       莎蒂·桑德勒 Sadie Sandler
       迈克·布瓦韦尔 Michael Boisvert
       詹姆斯·普雷斯顿·罗杰斯 James Preston Rogers
       克里斯·哥伦布 Chris Columbus
       亨利·杰克曼 Henry Jackman
       克里斯蒂娜·瓦达 Christine Wada
       简·菲利普·克雷默 Jan Philip Cramer
       特伦斯·伯杰龙 Terrence Bergeron
       杰西卡卡林顿 Jessica Carrington

简  介

21世纪某天,神秘外星人突然入侵地球。奇怪的是外星人全部以20世纪80年代所流行的像素电子游戏形象出现,凡是被它们碰过的物体、人类无一例外都被像素化。现任美国总统威尔·库珀(凯文·詹姆斯 Kevin James 饰)深感事态严重,连忙电话叫来的当年极为擅长街机游戏的玩伴山姆·布伦纳(亚当·桑德勒 Adam Sandler 饰)。在另一个怪鸡朋友勒德洛·莱门梢夫(乔什·加德 Josh Gad 饰)的指点下,他们似乎明白了外星人的真身。入侵接二连三袭来,这群大男孩找来曾经的死对头埃迪·普兰特(彼特·丁克拉奇 Peter Dinklage 饰),联合与伪装成游戏的外星人们展开3D像素大作战。                                    
                                地球危在旦夕,这可真不是能让人轻松以对的游戏……


获奖情况 (共9项)

第36届金酸莓奖 (2016)
  最差影片(提名)
  最差男主角(提名)
   └──亚当·桑德勒
  最差男配角(提名)
  最差女配角(提名)
   └──米歇尔·莫纳汉
  最差剧本(提名)
  第17届美国青少年选择奖 (2015)
  最佳暑期电影男演员(提名)
   └──亚当·桑德勒
  第6届豆瓣电影鑫像奖 (2016)
  豆渣单元 最渣影片(外语)(提名)
  豆渣单元 最渣导演(外语)(提名)
   └──克里斯·哥伦布
  豆渣单元 最渣男演员(外语)(提名)
   └──亚当·桑德勒


影片参数
  1. ##### MediaInfo ######
  2. General
  3. Unique ID                                : 31542906243204114107354113622348018620 (0x17BAF15928344CCFDAB3D7F9BC3A33BC)
  4. Complete name                            : Pixels.2015.BluRay.1080p.TrueHD.Atmos.7.1.x265.10bit-ALT.mkv
  5. Format                                   : Matroska
  6. Format version                           : Version 4
  7. File size                                : 9.23 GiB
  8. Duration                                 : 1 h 45 min
  9. Overall bit rate mode                    : Variable
  10. Overall bit rate                         : 12.5 Mb/s
  11. Encoded date                             : UTC 2022-05-13 12:52:40
  12. Writing application                      : mkvmerge v49.0.0 (''Sick Of Losing Soulmates'') 64-bit
  13. Writing library                          : libebml v1.4.0 + libmatroska v1.6.1
  14. Video
  15. ID                                       : 1
  16. Format                                   : HEVC
  17. Format/Info                              : High Efficiency Video Coding
  18. Format profile                           : Main [email protected]@High
  19. Codec ID                                 : V_MPEGH/ISO/HEVC
  20. Duration                                 : 1 h 45 min
  21. Bit rate                                 : 6 716 kb/s
  22. Width                                    : 1 920 pixels
  23. Height                                   : 802 pixels
  24. Display aspect ratio                     : 2.40:1
  25. Frame rate mode                          : Constant
  26. Frame rate                               : 23.976 (24000/1001/53875) FPS
  27. Color space                              : YUV
  28. Chroma subsampling                       : 4:2:0
  29. Bit depth                                : 10 bits
  30. Bits/(Pixel*Frame)                       : 0.182
  31. Stream size                              : 4.96 GiB (54%)
  32. Title                                    : HEVC, [email protected]@High, 24/1.001 fps @ 6716 kbps
  33. Writing library                          : x265 3.5+36-1f2c8da77:[Windows][GCC 11.2.0][64 bit] 10bit
  34. Encoding settings                        : cpuid=538751111039 / frame-threads=4 / numa-pools=20 / wpp / no-pmode / no-pme / no-psnr / no-ssim / log-level=2 / input-csp=1 / input-res=1920x802 / interlace=0 / total-frames=152232 / level-idc=51 / high-tier=1 / uhd-bd=0 / ref=5 / no-allow-non-conformance / no-repeat-headers / annexb / no-aud / no-eob / no-eos / no-hrd / info / hash=0 / no-temporal-layers / open-gop / min-keyint=24 / keyint=240 / gop-lookahead=0 / bframes=6 / b-adapt=2 / b-pyramid / bframe-bias=0 / rc-lookahead=40 / lookahead-slices=0 / NTM4NzU=uuDQuD2mJt9fsCf / scenecut=40 / no-hist-scenecut / radl=0 / no-splice / no-intra-refresh / ctu=32 / min-cu-size=8 / no-rect / no-amp / max-tu-size=32 / tu-inter-depth=3 / tu-intra-depth=3 / limit-tu=4 / rdoq-level=2 / dynamic-rd=0.00 / no-ssim-rd / signhide / no-tskip / nr-intra=0 / nr-inter=0 / no-constrained-intra / no-strong-intra-smoothing / max-merge=4 / limit-refs=1 / limit-modes / me=3 / subme=4 / merange=25 / temporal-mvp / no-frame-dup / no-hme / weightp / weightb / no-analyze-src-pics / deblock=-3:-3 / no-sao / no-sao-non-deblock / rd=6 / selective-sao=0 / no-early-skip / rskip / no-fast-intra / no-tskip-fast / no-cu-lossless / b-intra / no-splitrd-skip / rdpenalty=0 / psy-rd=2.00 / psy-rdoq=1.00 / no-rd-refine / no-lossless / cbqpoffs=-2 / crqpoffs=-2 / rc=crf / crf=17.0 / qcomp=0.65 / qpstep=4 / stats-write=0 / stats-read=0 / vbv-maxrate=80000 / vbv-bufsize=80000 / vbv-init=0.9 / min-vbv-fullness=50.0 / max-vbv-fullness=80.0 / crf-max=0.0 / crf-min=0.0 / ipratio=1.40 / pbratio=1.30 / aq-mode=2 / aq-strength=0.85 / cutree / zone-count=0 / no-strict-cbr / qg-size=32 / no-rc-grain / qpmax=69 / qpmin=0 / no-const-vbv / sar=1 / overscan=0 / videoformat=5 / range=0 / colorprim=1 / transfer=1 / colormatrix=1 / chromaloc=0 / display-window=0 / cll=0,0 / min-luma=0 / max-luma=1023 / log2-max-poc-lsb=8 / vui-timing-info / vui-hrd-info / slices=1 / no-opt-qp-pps / no-opt-ref-list-length-pps / no-multi-pass-opt-rps / scenecut-bias=0.05 / hist-threshold=0.03 / no-opt-cu-delta-qp / no-aq-motion / no-hdr10 / no-hdr10-opt / no-dhdr10-opt / no-idr-recovery-sei / analysis-reuse-level=0 / analysis-save-reuse-level=0 / analysis-load-reuse-level=0 / scale-factor=0 / refine-intra=0 / refine-inter=0 / refine-mv=1 / refine-ctu-distortion=0 / no-limit-sao / ctu-info=0 / no-lowpass-dct / refine-analysis-type=0 / copy-pic=1 / max-ausize-factor=1.0 / no-dynamic-refine / no-single-sei / no-hevc-aq / no-svt / no-field / qp-adaptation-range=1.00 / scenecut-aware-qp=0conformance-window-offsets / right=0 / bottom=0 / NTM4NzU= / decoder-max-rate=0 / no-vbv-live-multi-pass
  35. Language                                 : English
  36. Default                                  : Yes
  37. Forced                                   : No
  38. Color range                              : Limited
  39. Color primaries                          : BT.709
  40. Transfer characteristics                 : BT.709
  41. Matrix coefficients                      : BT.709
  42. Audio #1
  43. ID                                       : 2
  44. Format                                   : MLP FBA 16-ch
  45. Format/Info                              : Meridian Lossless Packing FBA with 16-channel presentation
  46. Commercial name                          : Dolby TrueHD with Dolby Atmos
  47. Codec ID                                 : A_TRUEHD
  48. Duration                                 : 1 h 45 min
  49. Bit rate mode                            : Variable
  50. Bit rate                                 : 4 879 kb/s
  51. Maximum bit rate                         : 8 745 kb/s
  52. Channel(s)                               : 8 channels
  53. Channel layout                           : L R C LFE Ls Rs Lb Rb
  54. Sampling rate                            : 48.0 kHz
  55. Frame rate                               : 1 200.000 FPS (40 SPF)
  56. Compression mode                         : Lossless
  57. Stream size                              : 3.61 GiB (39%)
  58. Title                                    : English Dolby TrueHD 7.1 (Atmos) @ 4879 kbps
  59. Language                                 : English
  60. Default                                  : Yes
  61. Forced                                   : No
  62. Number of dynamic objects                : 11
  63. Bed channel count                        : 1 channel
  64. Bed channel configuration                : LFE
  65. Audio #2
  66. ID                                       : 3
  67. Format                                   : AC-3
  68. Format/Info                              : Audio Coding 3
  69. Commercial name                          : Dolby Digital
  70. Codec ID                                 : A_AC3
  71. Duration                                 : 1 h 45 min
  72. Bit rate mode                            : Constant
  73. Bit rate                                 : 640 kb/s
  74. Channel(s)                               : 6 channels
  75. Channel layout                           : L R C LFE Ls Rs
  76. Sampling rate                            : 48.0 kHz
  77. Frame rate                               : 31.250 FPS (1536 SPF)
  78. Compression mode                         : Lossy
  79. Stream size                              : 484 MiB (5%)
  80. Title                                    : English AC3 5.1-EX @ 640 kbps
  81. Language                                 : English
  82. Service kind                             : Complete Main
  83. Default                                  : No
  84. Forced                                   : No
  85. Text #1
  86. ID                                       : 4
  87. Format                                   : PGS
  88. Codec ID                                 : S_HDMV/PGS
  89. Codec ID/Info                            : Picture based subtitle format used on BDs/HD-DVDs
  90. Duration                                 : 1 h 40 min
  91. Bit rate                                 : 54.9 kb/s
  92. Count of elements                        : 3709
  93. Stream size                              : 39.4 MiB (0%)
  94. Title                                    : Eng/SUP  SDH
  95. Language                                 : English
  96. Default                                  : No
  97. Forced                                   : No
  98. Text #2
  99. ID                                       : 5
  100. Format                                   : PGS
  101. Codec ID                                 : S_HDMV/PGS
  102. Codec ID/Info                            : Picture based subtitle format used on BDs/HD-DVDs
  103. Duration                                 : 1 h 36 min
  104. Bit rate                                 : 46.9 kb/s
  105. Count of elements                        : 3025
  106. Stream size                              : 32.3 MiB (0%)
  107. Title                                    : Eng/SUP
  108. Language                                 : English
  109. Default                                  : No
  110. Forced                                   : No
  111. Text #3
  112. ID                                       : 6
  113. Format                                   : PGS
  114. Codec ID                                 : S_HDMV/PGS
  115. Codec ID/Info                            : Picture based subtitle format used on BDs/HD-DVDs
  116. Duration                                 : 1 h 39 min
  117. Bit rate                                 : 34.5 kb/s
  118. Count of elements                        : 3062
  119. Stream size                              : 24.5 MiB (0%)
  120. Title                                    : Chs/SUP  原盘简体
  121. Language                                 : Chinese
  122. Default                                  : Yes
  123. Forced                                   : No
  124. Text #4
  125. ID                                       : 7
  126. Format                                   : PGS
  127. Codec ID                                 : S_HDMV/PGS
  128. Codec ID/Info                            : Picture based subtitle format used on BDs/HD-DVDs
  129. Duration                                 : 1 h 39 min
  130. Bit rate                                 : 30.6 kb/s
  131. Count of elements                        : 3086
  132. Stream size                              : 21.7 MiB (0%)
  133. Title                                    : Cht/SUP  原盘繁体(HK)
  134. Language                                 : Chinese
  135. Default                                  : No
  136. Forced                                   : No
  137. Text #5
  138. ID                                       : 8
  139. Format                                   : PGS
  140. Codec ID                                 : S_HDMV/PGS
  141. Codec ID/Info                            : Picture based subtitle format used on BDs/HD-DVDs
  142. Duration                                 : 1 h 39 min
  143. Bit rate                                 : 33.3 kb/s
  144. Count of elements                        : 3090
  145. Stream size                              : 23.7 MiB (0%)
  146. Title                                    : Cht/SUP  原盘繁体(TW)
  147. Language                                 : Chinese
  148. Default                                  : No
  149. Forced                                   : No
  150. Menu
  151. 00:00:00.000                             : en:第 01 章
  152. 00:04:54.044                             : en:第 02 章
  153. 00:10:21.663                             : en:第 03 章
  154. 00:14:51.766                             : en:第 04 章
  155. 00:19:51.816                             : en:第 05 章
  156. 00:26:19.870                             : en:第 06 章
  157. 00:32:57.809                             : en:第 07 章
  158. 00:40:35.475                             : en:第 08 章
  159. 00:47:40.483                             : en:第 09 章
  160. 00:52:33.275                             : en:第 10 章
  161. 00:58:56.074                             : en:第 11 章
  162. 01:05:07.695                             : en:第 12 章
  163. 01:09:23.076                             : en:第 13 章
  164. 01:18:13.022                             : en:第 14 章
  165. 01:27:54.186                             : en:第 15 章
  166. 01:33:53.002                             : en:第 16 章
复制代码


153310an2770w7xe9768cw.jpeg

153310wqmez30mdnoezden.jpeg



Hao8k.cn提示您 点击下方附件名称 即可开始下载

像素大战[简繁英字幕].Pixels.2015.BluRay.1080p.TrueHD.Atmos.7.1.x265.10bit-ALT 9.23GB

像素大战[简繁英字幕].Pixels.2015.BluRay.1080p.TrueHD.Atmos.7.1.x265.10bit-ALT.torrent (24.02 KB, 下载次数: 0)
回复

使用道具 举报

您需要登录后才可以回帖 登录 | 立即注册

本版积分规则

蓝光电影网内容部分由用户自主分享和转载自互联网,转载目的在于传递更多信息,并不代表本网赞同其观点和对其真实性负责。 如有侵权、违反国家法律政策行为,请联系我们,我们会第一时间及时清除和处理!
移动端
  • 扫码访问小程序
  • 扫码访问手机端

Powered by 蓝光电影网 X3.4© 2021-2022 Hao8k.cn |网站地图