游客您好
第三方账号登陆
  • 点击联系客服

    在线时间:8:00-16:00

    电子邮件

    lanniao@4kpro.cn
  • 扫描二维码

    访问小程序

  • 扫描二维码

    访问手机版

推荐阅读
Hao8k资源组
未知星球 | 未知职业
  • 关注0
  • 粉丝1
  • 帖子58083
精选帖子
开启左侧

[剧情片] 往日情怀[简繁英字幕].The.Way.We.Were.1973.BluRay.1080p.DTS-HD.MA5.1.x265.10bit-ALT 13.88GB

[复制链接]
Hao8k资源组 发表于 2022-5-23 13:39:01 | 显示全部楼层 |阅读模式 打印 上一主题 下一主题

马上注册 Hao8k.cn ,获得更好的体验,让你轻松玩转Hao8k

您需要 登录 才可以下载或查看,没有帐号?立即注册

x
153223n8hq7j9orq9699hl.jpeg


译  名 往日情怀 / 俏郎君
片  名 The Way We Were
年  代 1973
产  地 美国
类  别 剧情 / 爱情
语  言 英语
上映日期 1973-10-17
豆瓣评分 8.2/10 (5688人评价)
片  长 118 分钟
导  演 西德尼·波拉克 Sydney Pollack
编  剧 亚瑟·劳伦特斯 Arthur Laurents
       弗朗西斯·福特·科波拉 Francis Ford Coppola
       大卫·雷菲尔德 David Rayfiel
演  员 芭芭拉·史翠珊 Barbra Streisand
       罗伯特·雷德福 Robert Redford
       洛伊丝·奇利斯 Lois Chiles
       詹姆斯·伍兹 James Woods
       苏珊·布莱克利 Susan Blakely
       John F. Burnett John F. Burnett
       多罗西·吉金斯 Dorothy Jeakins
       Gary Liddiard Gary Liddiard
       迈克尔·布里顿 Michael Britton

简  介

本片以美国50年代美苏冷战时期为背景,围绕女主人公凯蒂·莫若斯凯(芭芭拉·史翠珊 Barbra Streisand饰)与男主人公哈贝尔·加德纳(罗伯特·雷德福 Robert Redford饰)讲述了一段由相识到相知相恋,却因彼此间个性和政治立场的差异而分手的爱情故事。凯蒂,性格倔强浓烈的左翼女生,在校担任青年政党联盟主席;而主张明哲保身的哈贝尔则是学校有名的运动和写作才子。两人顺理成章地走到一起,也不可避免地分道扬镳。许多年以后,哈贝尔在街头与凯蒂重逢,往日情怀,不禁涌上心头。                                       
                                    由著名导演西德尼·波拉克执导的影片《往日情怀》,根据阿琴·劳伦茨的小说改编而成。导演波拉克十分擅长反映当今社会的政治问题和揭露一些社会现实,而这部具有浓厚政治意味的好莱坞爱情片,更成为当时具有知识分子味道的代表作。波拉克一生导演了19部影片,共获得46项奥斯卡提名。本片则荣获...


获奖情况 (共6项)

第46届奥斯卡金像奖 (1974)
  最佳女主角(提名)
   └──芭芭拉·史翠珊
  最佳摄影(提名)
   └──哈利·斯特拉德
  最佳艺术指导(提名)
  最佳服装设计(提名)
  剧情片最佳原创配乐
   └──马文·哈姆利奇
  最佳原创歌曲


影片参数
  1. ##### MediaInfo ######
  2. General
  3. Unique ID                                : 291149882649098121894915072029985028130 (0xDB096D7FB4771BBD52DF3184CDFF3822)
  4. Complete name                            : The.Way.We.Were.1973.BluRay.1080p.DTS-HD.MA5.1.x265.10bit-ALT.mkv
  5. Format                                   : Matroska
  6. Format version                           : Version 4
  7. File size                                : 13.9 GiB
  8. Duration                                 : 1 h 58 min
  9. Overall bit rate mode                    : Variable
  10. Overall bit rate                         : 16.8 Mb/s
  11. Encoded date                             : UTC 2022-05-13 13:42:32
  12. Writing application                      : mkvmerge v49.0.0 (''Sick Of Losing Soulmates'') 64-bit
  13. Writing library                          : libebml v1.4.0 + libmatroska v1.6.1
  14. Video
  15. ID                                       : 1
  16. Format                                   : HEVC
  17. Format/Info                              : High Efficiency Video Coding
  18. Format profile                           : Main [email protected]@High
  19. Codec ID                                 : V_MPEGH/ISO/HEVC
  20. Duration                                 : 1 h 58 min
  21. Bit rate                                 : 12.6 Mb/s
  22. Width                                    : 1 920 pixels
  23. Height                                   : 800 pixels
  24. Display aspect ratio                     : 2.40:1
  25. Frame rate mode                          : Constant
  26. Frame rate                               : 23.976 (24000/1001/53875) FPS
  27. Color space                              : YUV
  28. Chroma subsampling                       : 4:2:0
  29. Bit depth                                : 10 bits
  30. Bits/(Pixel*Frame)                       : 0.343
  31. Stream size                              : 10.4 GiB (75%)
  32. Title                                    : HEVC, [email protected]@High, 24/1.001 fps @ 12627 kbps
  33. Writing library                          : x265 3.5+36-1f2c8da77:[Windows][GCC 11.2.0][64 bit] 10bit
  34. Encoding settings                        : cpuid=538751111039 / frame-threads=4 / numa-pools=20 / wpp / no-pmode / no-pme / no-psnr / no-ssim / log-level=2 / input-csp=1 / input-res=1920x800 / interlace=0 / total-frames=170113 / level-idc=51 / high-tier=1 / uhd-bd=0 / ref=5 / no-allow-non-conformance / no-repeat-headers / annexb / no-aud / no-eob / no-eos / no-hrd / info / hash=0 / no-temporal-layers / open-gop / min-keyint=24 / keyint=240 / gop-lookahead=0 / bframes=6 / b-adapt=2 / b-pyramid / bframe-bias=0 / rc-lookahead=40 / lookahead-slices=0 / NTM4NzU=uuDQuD2mJt9fsCf / scenecut=40 / no-hist-scenecut / radl=0 / no-splice / no-intra-refresh / ctu=32 / min-cu-size=8 / no-rect / no-amp / max-tu-size=32 / tu-inter-depth=3 / tu-intra-depth=3 / limit-tu=4 / rdoq-level=2 / dynamic-rd=0.00 / no-ssim-rd / signhide / no-tskip / nr-intra=0 / nr-inter=0 / no-constrained-intra / no-strong-intra-smoothing / max-merge=4 / limit-refs=1 / limit-modes / me=3 / subme=4 / merange=25 / temporal-mvp / no-frame-dup / no-hme / weightp / weightb / no-analyze-src-pics / deblock=-3:-3 / no-sao / no-sao-non-deblock / rd=6 / selective-sao=0 / no-early-skip / rskip / no-fast-intra / no-tskip-fast / no-cu-lossless / b-intra / no-splitrd-skip / rdpenalty=0 / psy-rd=2.00 / psy-rdoq=1.00 / no-rd-refine / no-lossless / cbqpoffs=-2 / crqpoffs=-2 / rc=crf / crf=18.5 / qcomp=0.65 / qpstep=4 / stats-write=0 / stats-read=0 / vbv-maxrate=80000 / vbv-bufsize=80000 / vbv-init=0.9 / min-vbv-fullness=50.0 / max-vbv-fullness=80.0 / crf-max=0.0 / crf-min=0.0 / ipratio=1.40 / pbratio=1.30 / aq-mode=2 / aq-strength=0.85 / cutree / zone-count=0 / no-strict-cbr / qg-size=32 / no-rc-grain / qpmax=69 / qpmin=0 / no-const-vbv / sar=1 / overscan=0 / videoformat=5 / range=0 / colorprim=1 / transfer=1 / colormatrix=1 / chromaloc=0 / display-window=0 / cll=0,0 / min-luma=0 / max-luma=1023 / log2-max-poc-lsb=8 / vui-timing-info / vui-hrd-info / slices=1 / no-opt-qp-pps / no-opt-ref-list-length-pps / no-multi-pass-opt-rps / scenecut-bias=0.05 / hist-threshold=0.03 / no-opt-cu-delta-qp / no-aq-motion / no-hdr10 / no-hdr10-opt / no-dhdr10-opt / no-idr-recovery-sei / analysis-reuse-level=0 / analysis-save-reuse-level=0 / analysis-load-reuse-level=0 / scale-factor=0 / refine-intra=0 / refine-inter=0 / refine-mv=1 / refine-ctu-distortion=0 / no-limit-sao / ctu-info=0 / no-lowpass-dct / refine-analysis-type=0 / copy-pic=1 / max-ausize-factor=1.0 / no-dynamic-refine / no-single-sei / no-hevc-aq / no-svt / no-field / qp-adaptation-range=1.00 / scenecut-aware-qp=0conformance-window-offsets / right=0 / bottom=0 / NTM4NzU= / decoder-max-rate=0 / no-vbv-live-multi-pass
  35. Language                                 : English
  36. Default                                  : Yes
  37. Forced                                   : No
  38. Color range                              : Limited
  39. Color primaries                          : BT.709
  40. Transfer characteristics                 : BT.709
  41. Matrix coefficients                      : BT.709
  42. Audio #1
  43. ID                                       : 2
  44. Format                                   : DTS XLL
  45. Format/Info                              : Digital Theater Systems
  46. Commercial name                          : DTS-HD Master Audio
  47. Codec ID                                 : A_DTS
  48. Duration                                 : 1 h 58 min
  49. Bit rate mode                            : Variable
  50. Bit rate                                 : 3 714 kb/s
  51. Channel(s)                               : 6 channels
  52. Channel layout                           : C L R Ls Rs LFE
  53. Sampling rate                            : 48.0 kHz
  54. Frame rate                               : 93.750 FPS (512 SPF)
  55. Bit depth                                : 24 bits
  56. Compression mode                         : Lossless
  57. Stream size                              : 3.07 GiB (22%)
  58. Title                                    : English DTS-HD Master Audio 5.1 @ 3714 kbps
  59. Language                                 : English
  60. Default                                  : Yes
  61. Forced                                   : No
  62. Audio #2
  63. ID                                       : 3
  64. Format                                   : AC-3
  65. Format/Info                              : Audio Coding 3
  66. Commercial name                          : Dolby Digital
  67. Codec ID                                 : A_AC3
  68. Duration                                 : 1 h 58 min
  69. Bit rate mode                            : Constant
  70. Bit rate                                 : 192 kb/s
  71. Channel(s)                               : 2 channels
  72. Channel layout                           : L R
  73. Sampling rate                            : 48.0 kHz
  74. Frame rate                               : 31.250 FPS (1536 SPF)
  75. Compression mode                         : Lossy
  76. Stream size                              : 162 MiB (1%)
  77. Title                                    : English Dolby Digital Audio 2.0 @ 192 kbps  Commentary 1
  78. Language                                 : English
  79. Service kind                             : Complete Main
  80. Default                                  : No
  81. Forced                                   : No
  82. Audio #3
  83. ID                                       : 4
  84. Format                                   : AC-3
  85. Format/Info                              : Audio Coding 3
  86. Commercial name                          : Dolby Digital
  87. Codec ID                                 : A_AC3
  88. Duration                                 : 1 h 58 min
  89. Bit rate mode                            : Constant
  90. Bit rate                                 : 192 kb/s
  91. Channel(s)                               : 2 channels
  92. Channel layout                           : L R
  93. Sampling rate                            : 48.0 kHz
  94. Frame rate                               : 31.250 FPS (1536 SPF)
  95. Compression mode                         : Lossy
  96. Stream size                              : 162 MiB (1%)
  97. Title                                    : English Dolby Digital Audio 2.0 @ 192 kbps  Commentary 2
  98. Language                                 : English
  99. Service kind                             : Complete Main
  100. Default                                  : No
  101. Forced                                   : No
  102. Text #1
  103. ID                                       : 5
  104. Format                                   : PGS
  105. Codec ID                                 : S_HDMV/PGS
  106. Codec ID/Info                            : Picture based subtitle format used on BDs/HD-DVDs
  107. Duration                                 : 1 h 56 min
  108. Bit rate                                 : 46.4 kb/s
  109. Count of elements                        : 2775
  110. Stream size                              : 38.8 MiB (0%)
  111. Title                                    : Eng/SUP
  112. Language                                 : English
  113. Default                                  : No
  114. Forced                                   : No
  115. Text #2
  116. ID                                       : 6
  117. Format                                   : PGS
  118. Codec ID                                 : S_HDMV/PGS
  119. Codec ID/Info                            : Picture based subtitle format used on BDs/HD-DVDs
  120. Duration                                 : 1 h 57 min
  121. Bit rate                                 : 16.5 kb/s
  122. Count of elements                        : 1634
  123. Stream size                              : 13.9 MiB (0%)
  124. Title                                    : Chs/SUP  简体
  125. Language                                 : Chinese
  126. Default                                  : Yes
  127. Forced                                   : No
  128. Text #3
  129. ID                                       : 7
  130. Format                                   : PGS
  131. Codec ID                                 : S_HDMV/PGS
  132. Codec ID/Info                            : Picture based subtitle format used on BDs/HD-DVDs
  133. Duration                                 : 1 h 57 min
  134. Bit rate                                 : 17.1 kb/s
  135. Count of elements                        : 1634
  136. Stream size                              : 14.4 MiB (0%)
  137. Title                                    : Cht/SUP  繁体
  138. Language                                 : Chinese
  139. Default                                  : No
  140. Forced                                   : No
  141. Menu
  142. 00:00:00.000                             : en:第 01 章
  143. 00:09:19.392                             : en:第 02 章
  144. 00:19:15.279                             : en:第 03 章
  145. 00:28:45.849                             : en:第 04 章
  146. 00:40:40.188                             : en:第 05 章
  147. 00:50:26.982                             : en:第 06 章
  148. 01:01:07.289                             : en:第 07 章
  149. 01:13:31.949                             : en:第 08 章
  150. 01:23:47.397                             : en:第 09 章
  151. 01:31:58.471                             : en:第 10 章
  152. 01:45:35.704                             : en:第 11 章
  153. 01:56:46.458                             : en:第 12 章
复制代码


153223go7tay78ynkg5dn1.jpeg

153223xz6u6u20675o0uud.jpeg



Hao8k.cn提示您 点击下方附件名称 即可开始下载

往日情怀[简繁英字幕].The.Way.We.Were.1973.BluRay.1080p.DTS-HD.MA5.1.x265.10bit-ALT 13.88GB

往日情怀[简繁英字幕].The.Way.We.Were.1973.BluRay.1080p.DTS-HD.MA5.1.x265.10bit-ALT.torrent (35.67 KB, 下载次数: 0)
回复

使用道具 举报

您需要登录后才可以回帖 登录 | 立即注册

本版积分规则

蓝光电影网内容部分由用户自主分享和转载自互联网,转载目的在于传递更多信息,并不代表本网赞同其观点和对其真实性负责。 如有侵权、违反国家法律政策行为,请联系我们,我们会第一时间及时清除和处理!
移动端
  • 扫码访问小程序
  • 扫码访问手机端

Powered by 蓝光电影网 X3.4© 2021-2022 Hao8k.cn |网站地图