游客您好
第三方账号登陆
  • 点击联系客服

    在线时间:8:00-16:00

    电子邮件

    lanniao@4kpro.cn
  • 扫描二维码

    访问小程序

  • 扫描二维码

    访问手机版

推荐阅读
Hao8k资源组
未知星球 | 未知职业
  • 关注0
  • 粉丝1
  • 帖子57008
精选帖子
开启左侧

间谍同盟[简体字幕].Allied.2016.2160p.UHD.Bluray.HDR10.x265.DTS-HD.MA.5.1-PAGE 12.92GB

[复制链接]
Hao8k资源组 发表于 2022-5-5 10:32:55 | 显示全部楼层 |阅读模式 打印 上一主题 下一主题
画质标准:
2160p 
音质编码:
DTS-HD Master Audio 
电影声道:
5.1声道


电影封面

马上注册 Hao8k.cn ,获得更好的体验,让你轻松玩转Hao8k

您需要 登录 才可以下载或查看,没有帐号?立即注册

x
185942ntwfrtwhfz8irqsc.jpeg


译  名 间谍同盟 / 同盟鹣鲽(台) / 伴谍同盟(港) / 同盟 / 五秒钟的沉默 / 盟军谍影 / Five Seconds of Silence
  故事发生在第二次世界大战期间,盟军反情报特工马克斯(布拉德·皮特 Brad Pitt 饰)和法国间谍卧底玛丽安(玛丽昂·歌迪亚 Marion Cotillard 饰)在军事战略要地卡桑布兰卡相遇,为了完成刺杀德国大使的共同愿景,两人不得不假扮夫妻。                                    
                                刚开始,个性大相径庭的马克思和玛丽安之间屡屡产生误会和矛盾,但随着时间的推移,当他们经历了一些生死存亡的危急时刻并且互相救助之后,两人间的假戏慢慢变成了真做,他们相爱了。最终,任务顺利完成,有情人终成眷属,他们结了婚,还有了爱情的结晶。本以为日子就将长此以往的这样进行下去的马克斯,在一次偶然中开始怀疑自己的妻子的真实身份是一名纳粹间谍。
获奖情况 (共6项)
  第89届奥斯卡金像奖 (2017)
  最佳服装设计(提名)
   └──乔安娜·约翰斯顿
  第70届英国电影学院奖 (2017)
  电影奖 最佳服装设计(提名)
   └──乔安娜·约翰斯顿
  第15届美国视觉效果协会奖 (2017)
  最佳电影辅助视觉效果(提名)
  第22届美国评论家选择电影奖 (2017)
  最佳服装设计(提名)
  第21届金卫星奖 (2017)
  电影部门 最佳音效(提名)
  电影部门 最佳美术指导(提名)
   └──加里·弗里曼


影片参数
  1. ##### MediaInfo ######
  2. General
  3. Unique ID                                : 300668207176048523672512004188950301309 (0xE2329721586072F69BD3879D85450A7D)
  4. Complete name                            : Allied.2016.2160p.UHD.Bluray.HDR10.x265.DTS-HD.MA.5.1-PTH.mkv
  5. Format                                   : Matroska
  6. Format version                           : Version 4
  7. File size                                : 12.9 GiB
  8. Duration                                 : 2 h 4 min
  9. Overall bit rate mode                    : Variable
  10. Overall bit rate                         : 14.8 Mb/s
  11. Encoded date                             : UTC 2022-04-10 07:28:08
  12. Writing application                      : mkvmerge v66.0.0 (''Josie'') 64-bit
  13. Writing library                          : libebml v1.4.2 + libmatroska v1.6.4
  14. Cover                                    : Yes
  15. Attachments                              : cover.jpg
  16. Video
  17. ID                                       : 1
  18. Format                                   : HEVC
  19. Format/Info                              : High Efficiency Video Coding
  20. Format profile                           : Main [email protected]@High
  21. HDR format                               : SMPTE ST 2086, HDR10 compatible
  22. Codec ID                                 : V_MPEGH/ISO/HEVC
  23. Duration                                 : 2 h 4 min
  24. Bit rate                                 : 11.5 Mb/s
  25. Width                                    : 3 840 pixels
  26. Height                                   : 1 600 pixels
  27. Display aspect ratio                     : 2.40:1
  28. Frame rate mode                          : Constant
  29. Frame rate                               : 23.976 (24000/1001/53875) FPS
  30. Color space                              : YUV
  31. Chroma subsampling                       : 4:2:0
  32. Bit depth                                : 10 bits
  33. Bits/(Pixel*Frame)                       : 0.078
  34. Stream size                              : 10.00 GiB (77%)
  35. Writing library                          : x265 3.3+3-g8f8e332f1+29:[Windows][#Erg`Djh#][@Yuuki] made by @Dongfangbubai
  36. Encoding settings                        : rc=crf / crf=18.0000 / qcomp=0.70 / qpstep=4 / stats-write=0 / stats-read=0 / vbv-maxrate=160000 / vbv-bufsize=160000 / vbv-init=0.9 / crf-max=0.0 / crf-min=0.0 / no-lossless / no-cu-lossless / aq-mode=3 / aq-strength=0.80 / cbqpoffs=-3 / crqpoffs=-3 / ipratio=1.40 / pbratio=1.30 / psy-rd=2.00 / psy-rdoq=3.00 / deblock=-1:-1 / ref=5 / limit-refs=0 / no-limit-modes / bframes=8 / b-adapt=2 / bframe-bias=0 / b-pyramid / b-intra / weightp / weightb / min-keyint=23 / max-keyint=240 / rc-lookahead=60 / gop-lookahead=0 / NTM4NzU=uuDQuD2mJt9fsCf / scenecut=40 / hist-scenecut=0 / radl=0 / max-cu-size=32 / min-cu-size=8 / me=3 / subme=4 / merange=25 / rdoq-level=2 / rd=4 / rdpenalty=1 / dynamic-rd=0.00 / no-rd-refine / ----- / no-cutree / no-sao / no-rect / no-amp / no-open-gop / wpp / pmode / pme / no-psnr / no-ssim / nr-intra=0 / nr-inter=0 / no-constrained-intra / no-strong-intra-smoothing / max-tu-size=32 / tu-inter-depth=2 / tu-intra-depth=2 / limit-tu=0 / qg-size=32 / qpmax=69 / qpmin=0 / ----- / cpuid=538751176575 / frame-threads=6 / numa-pools=54,- / log-level=2 / input-csp=1 / input-res=3840x1600 / interlace=0 / level-idc=0 / high-tier=1 / uhd-bd=0 / no-allow-non-conformance / repeat-headers / no-aud / hrd / info / hash=0 / no-temporal-layers / lookahead-slices=0 / no-splice / no-intra-refresh / no-ssim-rd / signhide / no-tskip / max-merge=3 / temporal-mvp / no-frame-dup / no-hme / no-analyze-src-pics / no-sao-non-deblock / selective-sao=0 / no-early-skip / no-rskip / no-fast-intra / no-tskip-fast / no-splitrd-skip / zone-count=0 / no-strict-cbr / no-rc-grain / no-const-vbv / sar=0 / overscan=0 / videoformat=5 / range=0 / colorprim=9 / transfer=16 / colormatrix=9 / chromaloc=0 / display-window=0 / master-display=G(13250,34500)B(7500,3000)R(34000,16000)WP(15635,16450)L(10000000,50) / cll=0,0 / min-luma=0 / max-luma=1023 / log2-max-poc-lsb=8 / vui-timing-info / vui-hrd-info / slices=1 / no-opt-qp-pps / no-opt-ref-list-length-pps / no-multi-pass-opt-rps / scenecut-bias=0.05 / hist-threshold=0.01 / no-opt-cu-delta-qp / no-aq-motion / hdr10 / hdr10-opt / no-dhdr10-opt / no-idr-recovery-sei / analysis-reuse-level=0 / analysis-save-reuse-level=0 / analysis-load-reuse-level=0 / scale-factor=0 / refine-intra=0 / refine-inter=0 / refine-mv=1 / refine-ctu-distortion=0 / no-limit-sao / ctu-info=0 / no-lowpass-dct / refine-analysis-type=0 / copy-pic=1 / max-ausize-factor=1.0 / no-dynamic-refine / no-single-sei / no-hevc-aq / no-svt / no-field / qp-adaptation-range=1.00 / no-scenecut-aware-qpconformance-window-offsets / right=0 / bottom=0 / NTM4NzU=
  37. Default                                  : Yes
  38. Forced                                   : No
  39. Color range                              : Limited
  40. Color primaries                          : BT.2020
  41. Transfer characteristics                 : PQ
  42. Matrix coefficients                      : BT.2020 non-constant
  43. Mastering display color primaries        : Display P3
  44. Mastering display luminance              : min: 0.0050 cd/m2, max: 1000 cd/m2
  45. Audio
  46. ID                                       : 2
  47. Format                                   : DTS XLL
  48. Format/Info                              : Digital Theater Systems
  49. Commercial name                          : DTS-HD Master Audio
  50. Codec ID                                 : A_DTS
  51. Duration                                 : 2 h 4 min
  52. Bit rate mode                            : Variable
  53. Bit rate                                 : 3 333 kb/s
  54. Channel(s)                               : 6 channels
  55. Channel layout                           : C L R Ls Rs LFE
  56. Sampling rate                            : 48.0 kHz
  57. Frame rate                               : 93.750 FPS (512 SPF)
  58. Bit depth                                : 24 bits
  59. Compression mode                         : Lossless
  60. Stream size                              : 2.90 GiB (22%)
  61. Language                                 : English
  62. Default                                  : Yes
  63. Forced                                   : No
  64. Text #1
  65. ID                                       : 3
  66. Format                                   : PGS
  67. Muxing mode                              : zlib
  68. Codec ID                                 : S_HDMV/PGS
  69. Codec ID/Info                            : Picture based subtitle format used on BDs/HD-DVDs
  70. Duration                                 : 2 h 3 min
  71. Bit rate                                 : 15.2 kb/s
  72. Count of elements                        : 2100
  73. Stream size                              : 13.4 MiB (0%)
  74. Language                                 : Chinese
  75. Default                                  : Yes
  76. Forced                                   : No
  77. Text #2
  78. ID                                       : 4
  79. Format                                   : PGS
  80. Muxing mode                              : zlib
  81. Codec ID                                 : S_HDMV/PGS
  82. Codec ID/Info                            : Picture based subtitle format used on BDs/HD-DVDs
  83. Duration                                 : 2 h 3 min
  84. Bit rate                                 : 15.3 kb/s
  85. Count of elements                        : 2064
  86. Stream size                              : 13.5 MiB (0%)
  87. Language                                 : Chinese
  88. Default                                  : Yes
  89. Forced                                   : No
  90. Text #3
  91. ID                                       : 5
  92. Format                                   : PGS
  93. Muxing mode                              : zlib
  94. Codec ID                                 : S_HDMV/PGS
  95. Codec ID/Info                            : Picture based subtitle format used on BDs/HD-DVDs
  96. Duration                                 : 2 h 3 min
  97. Bit rate                                 : 13.5 kb/s
  98. Count of elements                        : 2058
  99. Stream size                              : 11.9 MiB (0%)
  100. Language                                 : Chinese
  101. Default                                  : Yes
  102. Forced                                   : No
复制代码



Hao8k.cn提示您 点击下方附件名称 即可开始下载

间谍同盟[简体字幕].Allied.2016.2160p.UHD.Bluray.HDR10.x265.DTS-HD.MA.5.1-PAGE 12.92GB

间谍同盟[简体字幕].Allied.2016.2160p.UHD.Bluray.HDR10.x265.DTS-HD.MA.5.1-PAGE.torrent (33.24 KB, 下载次数: 7)
回复

使用道具 举报

精彩评论1

rockwolfVIP会员 发表于 2022-5-11 13:06:26 | 显示全部楼层
感谢楼主无私奉献
回复

使用道具 举报

您需要登录后才可以回帖 登录 | 立即注册

本版积分规则

蓝光电影网内容部分由用户自主分享和转载自互联网,转载目的在于传递更多信息,并不代表本网赞同其观点和对其真实性负责。 如有侵权、违反国家法律政策行为,请联系我们,我们会第一时间及时清除和处理!
移动端
  • 扫码访问小程序
  • 扫码访问手机端

Powered by 蓝光电影网 X3.4© 2021-2022 Hao8k.cn |网站地图