游客您好
第三方账号登陆
  • 点击联系客服

    在线时间:8:00-16:00

    电子邮件

    lanniao@4kpro.cn
  • 扫描二维码

    访问小程序

  • 扫描二维码

    访问手机版

推荐阅读
Hao8k资源组
未知星球 | 未知职业
  • 关注0
  • 粉丝1
  • 帖子57008
精选帖子
开启左侧

东方快车谋杀案[繁英字幕].Murder.On.The.Orient.Express.2017.UHD.BluRay.2160p.TrueHD.Atmos.7.1.x265.10bit.HDR-ALT 13.59GB

[复制链接]
Hao8k资源组 发表于 2022-5-5 10:31:10 | 显示全部楼层 |阅读模式 打印 上一主题 下一主题
画质标准:
10bit.HDR 2160p 
音质编码:
Dolby-Atmos Dolby-TrueHD 
电影声道:
7.1声道


电影封面

马上注册 Hao8k.cn ,获得更好的体验,让你轻松玩转Hao8k

您需要 登录 才可以下载或查看,没有帐号?立即注册

x
180242shn8hop93n8ejjee.jpeg


译  名 东方快车谋杀案
       曼努埃尔·加西亚-鲁尔福 Manuel Garcia-Rulfo
       理查德·克里弗特 Richard Clifford
       谢尔盖·波卢宁 Sergei Polunin
       亚当·加西亚 Adam Garcia
       露西·宝通 Lucy Boynton
       马尔万·肯扎里 Marwan Kenzari
       哈利·莱斯特·史密斯 Harry Lister Smith
       奥利维娅·科尔曼 Olivia Colman
       Chris Porter Chris Porter
       杰克·里德福德 Jack Riddiford
       菲尔·邓斯特 Phil Dunster
       米兰达·莱森 Miranda Raison
       安苏·卡比亚 Ansu Kabia
       托德·博伊斯 Todd Boyce
       拉斯科·阿特金斯 Lasco Atkins
       罗伊·贝克 Roy Beck
        Norman Bowman
       贝恩·科拉科 Bern Colla?o
       耶稣·加洛 Jesús Gallo
       露丝·霍洛克斯 Ruth Horrocks
       拉普洛斯·卡伦福佐斯 Lampros Kalfuntzos
       马里安·洛伦西克 Marian Lorencik
       贾森·马修森 Jason Matthewson
       尼克·欧文福特 Nick Owenford
       阿拉·萨菲 Alaa Safi
       伯纳多·桑托斯 Bernardo Santos
       查尔斯·斯特里特 Charles Streeter
       刘风 Feng Liu
       曹雷 Lei Cao
       王千源 Qianyuan Wang
       俞飞鸿 Faye Yu
       西蒙·金伯格 Simon Kinberg
       马克·戈登 Mark Gordon
       肯尼思·布拉纳 Kenneth Branagh
       迈克尔·舍费尔 Michael Schaefer
       雷德利·斯科特 Ridley Scott
       理查德·罗德尼·本尼特 Richard Rodney Bennett
       帕特里克·道尔 Patrick Doyle
       哈里斯·杰姆巴鲁克斯 Haris Zambarloukos
       亚历山德拉·伯恩 Alexandra Byrne
简  介

影片改编自阿加莎·克里斯蒂原著小说《东方快车谋杀案》,讲述大侦探波洛(肯尼思·布拉纳 Kenneth Branagh 饰)在东方快车上巧破一桩谋杀奇案的故事。波洛乘上东方快车,夜间三次被吵醒,第二天清晨便发现同车的美国富商雷切特(约翰尼·德普 Johnny Depp 饰)被人谋杀,死者被戳了12刀。波洛根据他所观察到的各种可疑迹象以及同车人士的讯问,并结合美国实行的12人陪审团制度等情况进行逻辑推理,成功地揭开了一起“集体复仇”奇案。
获奖情况 (共5项)
  第22届美国艺术指导工会奖 (2018)
  电影奖 最佳历史电影艺术指导(提名)
  第20届美国服装设计工会奖 (2018)
  年代电影最佳服装设计(提名)
   └──亚历山德拉·伯恩
  第23届美国评论家选择电影奖 (2018)
  最佳美术指导(提名)
  第22届金卫星奖 (2018)
  电影部门 最佳服装设计(提名)
   └──亚历山德拉·伯恩
  第4届豆瓣电影年度榜单 (2017)
  11月最受关注电影(提名)


影片参数
  1. ##### MediaInfo ######
  2. General
  3. Unique ID                                : 286729463081108945922429306456651431760 (0xD7B615FCCB906E8B358AF3EF5F457F50)
  4. Complete name                            : Murder.On.The.Orient.Express.2017.UHD.BluRay.2160p.TrueHD.Atmos.7.1.x265.10bit.HDR-BeiTai.mkv
  5. Format                                   : Matroska
  6. Format version                           : Version 4
  7. File size                                : 13.6 GiB
  8. Duration                                 : 1 h 53 min
  9. Overall bit rate mode                    : Variable
  10. Overall bit rate                         : 17.1 Mb/s
  11. Encoded date                             : UTC 2022-04-13 03:17:34
  12. Writing application                      : mkvmerge v49.0.0 (''Sick Of Losing Soulmates'') 64-bit
  13. Writing library                          : libebml v1.4.0 + libmatroska v1.6.1
  14. Video
  15. ID                                       : 1
  16. Format                                   : HEVC
  17. Format/Info                              : High Efficiency Video Coding
  18. Format profile                           : Main [email protected]@High
  19. HDR format                               : SMPTE ST 2086, HDR10 compatible
  20. Codec ID                                 : V_MPEGH/ISO/HEVC
  21. Duration                                 : 1 h 53 min
  22. Bit rate                                 : 11.8 Mb/s
  23. Width                                    : 3 840 pixels
  24. Height                                   : 1 606 pixels
  25. Display aspect ratio                     : 2.40:1
  26. Frame rate mode                          : Constant
  27. Frame rate                               : 23.976 (24000/1001/53875) FPS
  28. Color space                              : YUV
  29. Chroma subsampling                       : 4:2:0 (Type 2)
  30. Bit depth                                : 10 bits
  31. Bits/(Pixel*Frame)                       : 0.080
  32. Stream size                              : 9.40 GiB (69%)
  33. Title                                    : HEVC, [email protected]@High, 24/1.001 fps @ 11807 kbps
  34. Writing library                          : x265 3.5+36-1f2c8da77:[Windows][GCC 11.2.0][64 bit] 10bit
  35. Encoding settings                        : cpuid=538751111039 / frame-threads=4 / numa-pools=20 / wpp / pmode / pme / no-psnr / no-ssim / log-level=2 / input-csp=1 / input-res=3840x1606 / interlace=0 / total-frames=163899 / level-idc=51 / high-tier=1 / uhd-bd=0 / ref=4 / no-allow-non-conformance / repeat-headers / annexb / no-aud / no-eob / no-eos / hrd / info / hash=0 / no-temporal-layers / no-open-gop / min-keyint=24 / keyint=240 / gop-lookahead=0 / bframes=8 / b-adapt=2 / b-pyramid / bframe-bias=0 / rc-lookahead=25 / lookahead-slices=0 / NTM4NzU=uuDQuD2mJt9fsCf / scenecut=40 / no-hist-scenecut / radl=0 / no-splice / no-intra-refresh / ctu=64 / min-cu-size=8 / no-rect / no-amp / max-tu-size=32 / tu-inter-depth=3 / tu-intra-depth=3 / limit-tu=4 / rdoq-level=2 / dynamic-rd=0.00 / no-ssim-rd / signhide / no-tskip / nr-intra=0 / nr-inter=0 / no-constrained-intra / no-strong-intra-smoothing / max-merge=4 / limit-refs=1 / limit-modes / me=3 / subme=4 / merange=25 / temporal-mvp / no-frame-dup / no-hme / weightp / weightb / no-analyze-src-pics / deblock=-3:-3 / no-sao / no-sao-non-deblock / rd=6 / selective-sao=0 / no-early-skip / rskip / no-fast-intra / no-tskip-fast / no-cu-lossless / b-intra / no-splitrd-skip / rdpenalty=0 / psy-rd=2.00 / psy-rdoq=1.00 / no-rd-refine / no-lossless / cbqpoffs=0 / crqpoffs=0 / rc=crf / crf=18.5 / qcomp=0.65 / qpstep=4 / stats-write=0 / stats-read=0 / vbv-maxrate=160000 / vbv-bufsize=160000 / vbv-init=0.9 / min-vbv-fullness=50.0 / max-vbv-fullness=80.0 / crf-max=0.0 / crf-min=0.0 / ipratio=1.30 / pbratio=1.20 / aq-mode=3 / aq-strength=0.85 / cutree / zone-count=0 / no-strict-cbr / qg-size=32 / no-rc-grain / qpmax=69 / qpmin=0 / no-const-vbv / sar=1 / overscan=0 / videoformat=5 / range=0 / colorprim=9 / transfer=16 / colormatrix=9 / chromaloc=1 / chromaloc-top=2 / chromaloc-bottom=2 / display-window=0 / master-display=G(13250,34500)B(7500,3000)R(34000,16000)WP(15635,16450)L(10000000,50) / cll=0,0 / min-luma=0 / max-luma=1023 / log2-max-poc-lsb=8 / vui-timing-info / vui-hrd-info / slices=1 / no-opt-qp-pps / no-opt-ref-list-length-pps / no-multi-pass-opt-rps / scenecut-bias=0.05 / hist-threshold=0.03 / no-opt-cu-delta-qp / no-aq-motion / hdr10 / hdr10-opt / no-dhdr10-opt / no-idr-recovery-sei / analysis-reuse-level=0 / analysis-save-reuse-level=0 / analysis-load-reuse-level=0 / scale-factor=0 / refine-intra=0 / refine-inter=0 / refine-mv=1 / refine-ctu-distortion=0 / no-limit-sao / ctu-info=0 / no-lowpass-dct / refine-analysis-type=0 / copy-pic=1 / max-ausize-factor=1.0 / no-dynamic-refine / no-single-sei / no-hevc-aq / no-svt / no-field / qp-adaptation-range=1.00 / scenecut-aware-qp=0conformance-window-offsets / right=0 / bottom=0 / NTM4NzU= / decoder-max-rate=0 / no-vbv-live-multi-pass
  36. Language                                 : English
  37. Default                                  : Yes
  38. Forced                                   : No
  39. Color range                              : Limited
  40. Color primaries                          : BT.2020
  41. Transfer characteristics                 : PQ
  42. Matrix coefficients                      : BT.2020 non-constant
  43. Mastering display color primaries        : Display P3
  44. Mastering display luminance              : min: 0.0050 cd/m2, max: 1000 cd/m2
  45. Audio #1
  46. ID                                       : 2
  47. Format                                   : MLP FBA 16-ch
  48. Format/Info                              : Meridian Lossless Packing FBA with 16-channel presentation
  49. Commercial name                          : Dolby TrueHD with Dolby Atmos
  50. Codec ID                                 : A_TRUEHD
  51. Duration                                 : 1 h 53 min
  52. Bit rate mode                            : Variable
  53. Bit rate                                 : 4 139 kb/s
  54. Maximum bit rate                         : 7 662 kb/s
  55. Channel(s)                               : 8 channels
  56. Channel layout                           : L R C LFE Ls Rs Lb Rb
  57. Sampling rate                            : 48.0 kHz
  58. Frame rate                               : 1 200.000 FPS (40 SPF)
  59. Compression mode                         : Lossless
  60. Stream size                              : 3.29 GiB (24%)
  61. Title                                    : English Dolby TrueHD 7.1 (Atmos) @ 4779 kbps
  62. Language                                 : English
  63. Default                                  : Yes
  64. Forced                                   : No
  65. Number of dynamic objects                : 13
  66. Bed channel count                        : 1 channel
  67. Bed channel configuration                : LFE
  68. Audio #2
  69. ID                                       : 3
  70. Format                                   : AC-3
  71. Format/Info                              : Audio Coding 3
  72. Commercial name                          : Dolby Digital
  73. Codec ID                                 : A_AC3
  74. Duration                                 : 1 h 53 min
  75. Bit rate mode                            : Constant
  76. Bit rate                                 : 640 kb/s
  77. Channel(s)                               : 6 channels
  78. Channel layout                           : L R C LFE Ls Rs
  79. Sampling rate                            : 48.0 kHz
  80. Frame rate                               : 31.250 FPS (1536 SPF)
  81. Compression mode                         : Lossy
  82. Stream size                              : 522 MiB (4%)
  83. Title                                    : English AC3 5.1-EX @ 640 kbps
  84. Language                                 : English
  85. Service kind                             : Complete Main
  86. Default                                  : No
  87. Forced                                   : No
  88. Audio #3
  89. ID                                       : 4
  90. Format                                   : AC-3
  91. Format/Info                              : Audio Coding 3
  92. Commercial name                          : Dolby Digital
  93. Codec ID                                 : A_AC3
  94. Duration                                 : 1 h 53 min
  95. Bit rate mode                            : Constant
  96. Bit rate                                 : 224 kb/s
  97. Channel(s)                               : 2 channels
  98. Channel layout                           : L R
  99. Sampling rate                            : 48.0 kHz
  100. Frame rate                               : 31.250 FPS (1536 SPF)
  101. Compression mode                         : Lossy
  102. Stream size                              : 183 MiB (1%)
  103. Title                                    : English Dolby Digital Audio 2.0 @ 224?kbps  Commentary
  104. Language                                 : English
  105. Service kind                             : Complete Main
  106. Default                                  : No
  107. Forced                                   : No
  108. Text #1
  109. ID                                       : 5
  110. Format                                   : PGS
  111. Codec ID                                 : S_HDMV/PGS
  112. Codec ID/Info                            : Picture based subtitle format used on BDs/HD-DVDs
  113. Duration                                 : 1 h 45 min
  114. Bit rate                                 : 50.0 kb/s
  115. Count of elements                        : 3958
  116. Stream size                              : 37.9 MiB (0%)
  117. Title                                    : Eng/SUP
  118. Language                                 : English
  119. Default                                  : No
  120. Forced                                   : No
  121. Text #2
  122. ID                                       : 6
  123. Format                                   : PGS
  124. Codec ID                                 : S_HDMV/PGS
  125. Codec ID/Info                            : Picture based subtitle format used on BDs/HD-DVDs
  126. Duration                                 : 1 h 53 min
  127. Bit rate                                 : 30.6 kb/s
  128. Count of elements                        : 3218
  129. Stream size                              : 24.7 MiB (0%)
  130. Title                                    : Cht/SUP  原盘繁体(HK)
  131. Language                                 : Chinese
  132. Default                                  : No
  133. Forced                                   : No
  134. Text #3
  135. ID                                       : 7
  136. Format                                   : PGS
  137. Codec ID                                 : S_HDMV/PGS
  138. Codec ID/Info                            : Picture based subtitle format used on BDs/HD-DVDs
  139. Duration                                 : 1 h 52 min
  140. Bit rate                                 : 28.7 kb/s
  141. Count of elements                        : 3148
  142. Stream size                              : 23.1 MiB (0%)
  143. Title                                    : Cht/SUP  原盘繁体(TW)
  144. Language                                 : Chinese
  145. Default                                  : Yes
  146. Forced                                   : No
  147. Text #4
  148. ID                                       : 8
  149. Format                                   : PGS
  150. Codec ID                                 : S_HDMV/PGS
  151. Codec ID/Info                            : Picture based subtitle format used on BDs/HD-DVDs
  152. Duration                                 : 1 h 53 min
  153. Bit rate                                 : 86.7 kb/s
  154. Count of elements                        : 4568
  155. Stream size                              : 70.5 MiB (1%)
  156. Title                                    : Eng/SUP  Commentary
  157. Language                                 : English
  158. Default                                  : No
  159. Forced                                   : No
  160. Menu
  161. 00:00:00.000                             : en:第 01 章
  162. 00:03:06.144                             : en:第 02 章
  163. 00:06:42.193                             : en:第 03 章
  164. 00:11:44.746                             : en:第 04 章
  165. 00:18:26.188                             : en:第 05 章
  166. 00:24:53.659                             : en:第 06 章
  167. 00:33:14.159                             : en:第 07 章
  168. 00:37:47.515                             : en:第 08 章
  169. 00:43:16.511                             : en:第 09 章
  170. 00:46:24.865                             : en:第 10 章
  171. 00:51:23.580                             : en:第 11 章
  172. 00:55:52.015                             : en:第 12 章
  173. 01:00:03.183                             : en:第 13 章
  174. 01:05:39.227                             : en:第 14 章
  175. 01:10:40.153                             : en:第 15 章
  176. 01:14:17.578                             : en:第 16 章
  177. 01:18:05.055                             : en:第 17 章
  178. 01:21:12.284                             : en:第 18 章
  179. 01:24:39.366                             : en:第 19 章
  180. 01:28:37.854                             : en:第 20 章
  181. 01:32:28.376                             : en:第 21 章
  182. 01:37:04.652                             : en:第 22 章
  183. 01:40:30.024                             : en:第 23 章
  184. 01:46:49.903                             : en:第 24 章
复制代码


180243xqaztb578t4f553f.jpeg

180243c2ao2o71ya0uzb0u.jpeg

180243zxi4cecmxgmmpxmg.jpeg

180243ws42tv42chv8zi2b.jpeg

180243iv41ec866464ev43.jpeg

180243gyuuapiyv0iji722.jpeg



Hao8k.cn提示您 点击下方附件名称 即可开始下载

东方快车谋杀案[繁英字幕].Murder.On.The.Orient.Express.2017.UHD.BluRay.2160p.TrueHD.Atmos.7.1.x265.10bit.HDR-ALT 13.59GB

东方快车谋杀案[繁英字幕].Murder.On.The.Orient.Express.2017.UHD.BluRay.2160p.True.torrent (34.99 KB, 下载次数: 0)
回复

使用道具 举报

您需要登录后才可以回帖 登录 | 立即注册

本版积分规则

蓝光电影网内容部分由用户自主分享和转载自互联网,转载目的在于传递更多信息,并不代表本网赞同其观点和对其真实性负责。 如有侵权、违反国家法律政策行为,请联系我们,我们会第一时间及时清除和处理!
移动端
  • 扫码访问小程序
  • 扫码访问手机端

Powered by 蓝光电影网 X3.4© 2021-2022 Hao8k.cn |网站地图