开启左侧

[惊悚片] 德伯力克 Diabolik.2021.ITALIAN.1080p.BluRay.x264.DD5.1-EA 13.65GB

Hao8k资源组 发表于 2022-3-31 10:32:34 | 显示全部楼层 |阅读模式

马上注册 Hao8k.cn ,获得更好的体验,让你轻松玩转Hao8k

您需要 登录 才可以下载或查看,没有帐号?立即注册

x
76cd4f9f60160303e5bc6845f8360d4e.jpeg


译  名 德伯力克
片  名 Diabolik
年  代 2021
产  地 意大利
类  别 惊悚 / 犯罪
语  言 意大利语
上映日期 2021-12-16(意大利)
导  演 安东尼奥·马内蒂 Antonio Manetti
       马科·马内蒂 Marco Manetti
编  剧 安东尼奥·马内蒂 Antonio Manetti
       马科·马内蒂 Marco Manetti
       安吉拉·朱萨尼 Angela Giussani
       卢恰娜·朱萨尼 Luciana Giussani
演  员 卢卡·马里内利 Luca Marinelli
       米丽娅姆·莱昂内 Miriam Leone
       克劳迪亚·杰里尼 Claudia Gerini
       瓦莱里奥·马斯坦德雷亚 Valerio Mastandrea
       亚历山德罗·罗亚 Alessandro Roja
       洛伦佐·佩德罗蒂 Lorenzo Pedrotti
       古列尔莫·法维拉 Guglielmo Favilla
       约翰·西希尔 John Sehil
       Antonino Iuorio Antonino Iuorio

简  介

威尼斯电影节新晋影帝卢卡·马里内利,米丽娅姆·莱昂内(意大利版[看不见的客人])将主演,[爱情与子弹]导演安东尼奥·马内蒂、马科·马内蒂执导的意大利漫改影片[德伯力克]。本片讲述20世纪60年代,德伯力克和伊娃于在虚构的克莱维尔州初次见面的黑暗浪漫故事。该片由Michelangelo La Neve与马内蒂兄弟联合撰写剧本,会在库马约尔、博洛尼亚、米兰和里雅斯特拍摄,现已开拍。


影片参数
  1. Video
  2. ID                                       : 1
  3. Format                                   : AVC
  4. Format/Info                              : Advanced Video Codec
  5. Format profile                           : [email protected]
  6. Format settings                          : CABAC / 4 Ref Frames
  7. Format settings, CABAC                   : Yes
  8. Format settings, Reference frames        : 4 frames
  9. Codec ID                                 : V_MPEG4/ISO/AVC
  10. Duration                                 : 2 h 13 min
  11. Bit rate                                 : 13.6 Mb/s
  12. Width                                    : 1 920 pixels
  13. Height                                   : 1 038 pixels
  14. Display aspect ratio                     : 1.85:1
  15. Frame rate mode                          : Constant
  16. Frame rate                               : 25.000 FPS
  17. Color space                              : YUV
  18. Chroma subsampling                       : 4:2:0
  19. Bit depth                                : 8 bits
  20. Scan type                                : Progressive
  21. Bits/(Pixel*Frame)                       : 0.273
  22. Stream size                              : 12.7 GiB (93%)
  23. Title                                    : -EA
  24. Writing library                          : x264 core 164 r3085+55M 938b6d0 t_mod_New [(8 & 10)[email protected] X86_64]
  25. Encoding settings                        : cabac=1 / ref=4 / deblock=1:-3:-3 / analyse=0x3:0x133 / me=umh / subme=10 / psy=1 / fade_compensate=0.00 / psy_rd=0.96:0.00 / mixed_ref=1 / me_range=32 / chroma_me=1 / trellis=2 / 8x8dct=1 / cqm=0 / deadzone=21,11 / fast_pskip=0 / chroma_qp_offset=-2 / threads=18 / lookahead_threads=4 / sliced_threads=0 / nr=0 / decimate=0 / interlaced=0 / bluray_compat=0 / constrained_intra=0 / fgo=0 / bframes=10 / b_pyramid=2 / b_adapt=2 / b_bias=0 / direct=3 / weightb=1 / open_gop=0 / weightp=2 / keyint=250 / keyint_min=25 / scenecut=40 / intra_refresh=0 / rc_lookahead=60 / rc=crf / mbtree=0 / crf=17.7000 / qcomp=0.65 / qpmin=0:0:0 / qpmax=69:69:69 / qpstep=4 / vbv_maxrate=62500 / vbv_bufsize=78125 / crf_max=0.0 / nal_hrd=none / filler=0 / ip_ratio=1.35 / pb_ratio=1.25 / aq=3:0.85 / aq-sensitivity=10.00 / aq-factor=1.00:1.00:1.00 / aq2=0 / aq3=0
  26. Language                                 : Italian
  27. Default                                  : Yes
  28. Forced                                   : No
  29. Color range                              : Limited
  30. Color primaries                          : BT.709
  31. Transfer characteristics                 : BT.709
  32. Matrix coefficients                      : BT.709
  33. Audio
  34. ID                                       : 2
  35. Format                                   : E-AC-3
  36. Format/Info                              : Enhanced AC-3
  37. Commercial name                          : Dolby Digital Plus
  38. Codec ID                                 : A_EAC3
  39. Duration                                 : 2 h 13 min
  40. Bit rate mode                            : Constant
  41. Bit rate                                 : 1 024 kb/s
  42. Channel(s)                               : 6 channels
  43. Channel layout                           : L R C LFE Ls Rs
  44. Sampling rate                            : 48.0 kHz
  45. Frame rate                               : 31.250 FPS (1536 SPF)
  46. Compression mode                         : Lossy
  47. Stream size                              : 978 MiB (7%)
  48. Language                                 : Italian
  49. Service kind                             : Complete Main
  50. Default                                  : Yes
  51. Forced                                   : No
  52. Text #1
  53. ID                                       : 3
  54. Format                                   : UTF-8
  55. Codec ID                                 : S_TEXT/UTF8
  56. Codec ID/Info                            : UTF-8 Plain Text
  57. Duration                                 : 2 h 12 min
  58. Bit rate                                 : 44 b/s
  59. Count of elements                        : 1309
  60. Stream size                              : 43.5 KiB (0%)
  61. Title                                    : srt
  62. Language                                 : English
  63. Default                                  : Yes
  64. Forced                                   : No
  65. Text #2
  66. ID                                       : 4
  67. Format                                   : PGS
  68. Muxing mode                              : zlib
  69. Codec ID                                 : S_HDMV/PGS
  70. Codec ID/Info                            : Picture based subtitle format used on BDs/HD-DVDs
  71. Duration                                 : 2 h 12 min
  72. Bit rate                                 : 25.5 kb/s
  73. Count of elements                        : 2618
  74. Stream size                              : 24.2 MiB (0%)
  75. Title                                    : sup
  76. Language                                 : English
  77. Default                                  : No
  78. Forced                                   : No
  79. Text #3
  80. ID                                       : 5
  81. Format                                   : PGS
  82. Muxing mode                              : zlib
  83. Codec ID                                 : S_HDMV/PGS
  84. Codec ID/Info                            : Picture based subtitle format used on BDs/HD-DVDs
  85. Duration                                 : 2 h 6 min
  86. Bit rate                                 : 23.5 kb/s
  87. Count of elements                        : 2266
  88. Stream size                              : 21.3 MiB (0%)
  89. Title                                    : sup
  90. Language                                 : Italian
  91. Default                                  : No
  92. Forced                                   : No
  93. Menu
  94. 00:00:00.000                             : :Chapter 01
  95. 00:10:46.600                             : :Chapter 02
  96. 00:21:06.240                             : :Chapter 03
  97. 00:32:23.040                             : :Chapter 04
  98. 00:43:23.840                             : :Chapter 05
  99. 00:55:17.480                             : :Chapter 06
  100. 01:06:36.200                             : :Chapter 07
  101. 01:17:40.160                             : :Chapter 08
  102. 01:28:35.160                             : :Chapter 09
  103. 01:39:26.000                             : :Chapter 10
  104. 01:49:55.200                             : :Chapter 11
  105. 02:02:09.960                             : :Chapter 12
复制代码



Hao8k.cn提示您 点击下方附件名称 即可开始下载

德伯力克 Diabolik.2021.ITALIAN.1080p.BluRay.x264.DD5.1-EA 13.65GB

Diabolik.2021.ITALIAN.1080p.BluRay.x264.DD5.1-EA.torrent ( 17.68 KB )

回复

使用道具 举报

全部回复16 显示全部楼层
763770687 发表于 2022-4-2 19:54:16 | 显示全部楼层
111111111
回复

使用道具 举报

為愛夢一生 发表于 2022-4-17 09:13:31 | 显示全部楼层
1111111111
回复

使用道具 举报

Sidetoyou 发表于 2022-4-18 00:12:37 | 显示全部楼层
感谢分享
回复

使用道具 举报

穿山、甲乙丙丁 发表于 2022-7-22 00:30:17 | 显示全部楼层
这个能下吗
回复

使用道具 举报

fianlcs2003 发表于 2022-8-1 14:37:11 | 显示全部楼层
字幕呢,怎么没有
回复

使用道具 举报

fianlcs2003 发表于 2022-8-2 16:04:35 | 显示全部楼层
同志们有字幕下载吗
回复

使用道具 举报

zz506508 发表于 2022-8-6 06:47:40 | 显示全部楼层
111111111111111
回复

使用道具 举报

zz506508 发表于 2022-8-11 00:10:56 | 显示全部楼层
11111111111111111111111111111111111
回复

使用道具 举报

zz506508 发表于 2022-8-11 09:20:42 | 显示全部楼层
首先感谢楼主的分享,很喜欢这个片片,很多地方找不到资源。可惜下载需要K比,哪个大哥知道怎么获得K比的吗
回复

使用道具 举报

声明:您在社区发表的所有信息仅代表用户个人观点,与本网站立场无关,希望各位烧友理性发言,不发表违法国家法律禁止的话题。

您需要登录后才可以回帖 登录 | 立即注册

本版积分规则

开通会员 每日签到 返回顶部 返回列表