QQ登录

只需一步,快速开始

切换到宽版
微信扫一扫 分享朋友圈

已有 379 人浏览分享

开启左侧

异形魔怪/从地心窜出 Tremors.1990.2160p.UHD.BluRay.x265.10bit.HDR.DTS-HD.MA.5.1-GUHZER 37.11GB

[复制链接]
379 10
画质标准:
10bit.HDR
音质编码:
DTS-HD Master Audio 
电影声道:
5.1声道


电影封面

马上注册 Hao8k.cn ,获得更好的体验,让你轻松玩转Hao8k

您需要 登录 才可以下载或查看,没有帐号?立即注册

x
20190801120031.jpg

译  名 异形魔怪 / 从地心窜出 / 来自地底深处 / 深渊异形 / 震颤
片  名 Tremors
年  代 1990
产  地 美国
类  别 喜剧 / 恐怖
语  言 英语
上映日期 1990-01-19(美国)
IMDb评分  7.1/10 from 118785 users
豆瓣评分 7.1/10 from 8905 users
片  长 96 分钟
导  演 罗恩·安德伍德 Ron Underwood
主  演
凯文·贝肯 Kevin Bacon
弗莱德·沃德 Fred Ward
Finn Carter
迈克尔·格罗斯 Michael Gross
瑞芭·麦肯泰尔 Reba McEntire
罗伯特·詹 Robert Jayne
夏洛特·斯图尔特 Charlotte Stewart
托尼·吉纳罗 Tony Genaro
阿丽亚娜·理查兹 Ariana Richards
黄自强 Victor Wong
Sunshine Parker
康拉德·巴赫曼 Conrad Bachmann
比比·贝什 Bibi Besch
汤姆·伍德鲁夫 Tom Woodruff Jr.

简  介
  在一个名为“完美”的宁静小镇上,米奇(凯文·贝肯 Kevin Bacon 饰)和死党巴斯特(弗莱德·沃德 Fred Ward 饰)又度过了属于他们的平静一天。对于在这个无趣的小镇里从事着一份又一份没有前途,仅能糊口的工作这一事实,两个血气方刚的年轻人感到十分无奈和困扰。终于,他们决定要走出完美镇,开始他们多姿多彩的新生活,而就在此时,通向镇外的唯一一条公路莫名塌陷了,某些不详的征兆开始显现。早在数星期之前,镇上发生了家畜神秘失踪的恐怖事件,同时,地质系学生蕾贝卡( 芬妮·卡特 Finn Carter 饰)发现小镇的地壳运动十分异常。现在,众人终于将这些纷乱的线索拼凑到了一起,在大家的脚下,黑不见光的地底,究竟是什么在蠢蠢欲动?

影片参数

  1. Video
  2. ID                                       : 1
  3. Format                                   : HEVC
  4. Format/Info                              : High Efficiency Video Coding
  5. Format profile                           : Main 10@L5.1@High
  6. HDR format                               : SMPTE ST 2086, HDR10 compatible
  7. Codec ID                                 : V_MPEGH/ISO/HEVC
  8. Duration                                 : 1 h 36 min
  9. Bit rate                                 : 48.9 Mb/s
  10. Width                                    : 3 840 pixels
  11. Height                                   : 2 076 pixels
  12. Display aspect ratio                     : 1.85:1
  13. Frame rate mode                          : Constant
  14. Frame rate                               : 23.976 (24000/1001) FPS
  15. Color space                              : YUV
  16. Chroma subsampling                       : 4:2:0 (Type 2)
  17. Bit depth                                : 10 bits
  18. Bits/(Pixel*Frame)                       : 0.256
  19. Stream size                              : 32.8 GiB (90%)
  20. Writing library                          : x265 3.4+33-606265ac7:[Windows][MSVC 1900][64 bit] 10bit
  21. Encoding settings                        : cpuid=1111039 / frame-threads=4 / numa-pools=16 / wpp / no-pmode / no-pme / no-psnr / no-ssim / log-level=2 / input-csp=1 / input-res=3840x2076 / interlace=0 / total-frames=138113 / level-idc=51 / high-tier=1 / uhd-bd=0 / ref=4 / no-allow-non-conformance / repeat-headers / annexb / aud / hrd / info / hash=0 / no-temporal-layers / open-gop / min-keyint=23 / keyint=250 / gop-lookahead=0 / bframes=4 / b-adapt=2 / b-pyramid / bframe-bias=0 / rc-lookahead=25 / lookahead-slices=4 / scenecut=40 / hist-scenecut=0 / radl=0 / no-splice / no-intra-refresh / ctu=64 / min-cu-size=8 / rect / no-amp / max-tu-size=32 / tu-inter-depth=1 / tu-intra-depth=1 / limit-tu=0 / rdoq-level=2 / dynamic-rd=0.00 / no-ssim-rd / signhide / no-tskip / nr-intra=0 / nr-inter=0 / no-constrained-intra / strong-intra-smoothing / max-merge=3 / limit-refs=3 / limit-modes / me=3 / subme=3 / merange=57 / temporal-mvp / no-frame-dup / no-hme / weightp / no-weightb / no-analyze-src-pics / deblock=-3:-3 / no-sao / no-sao-non-deblock / rd=4 / selective-sao=0 / no-early-skip / rskip / no-fast-intra / no-tskip-fast / no-cu-lossless / no-b-intra / no-splitrd-skip / rdpenalty=0 / psy-rd=2.00 / psy-rdoq=1.00 / no-rd-refine / no-lossless / cbqpoffs=0 / crqpoffs=0 / rc=crf / crf=19.0 / qcomp=0.60 / qpstep=4 / stats-write=0 / stats-read=0 / vbv-maxrate=160000 / vbv-bufsize=160000 / vbv-init=0.9 / min-vbv-fullness=50.0 / max-vbv-fullness=80.0 / crf-max=0.0 / crf-min=0.0 / ipratio=1.40 / pbratio=1.30 / aq-mode=2 / aq-strength=1.00 / cutree / zone-count=0 / no-strict-cbr / qg-size=32 / no-rc-grain / qpmax=69 / qpmin=0 / no-const-vbv / sar=1 / overscan=0 / videoformat=5 / range=0 / colorprim=9 / transfer=16 / colormatrix=9 / chromaloc=1 / chromaloc-top=2 / chromaloc-bottom=2 / display-window=0 / master-display=G(8500,39850)B(6550,2300)R(35400,14600)WP(15635,16450)L(10000000,1) / cll=0,0 / min-luma=0 / max-luma=1023 / log2-max-poc-lsb=8 / vui-timing-info / vui-hrd-info / slices=1 / no-opt-qp-pps / no-opt-ref-list-length-pps / no-multi-pass-opt-rps / scenecut-bias=0.05 / hist-threshold=0.03 / no-opt-cu-delta-qp / no-aq-motion / hdr10 / hdr10-opt / no-dhdr10-opt / no-idr-recovery-sei / analysis-reuse-level=0 / analysis-save-reuse-level=0 / analysis-load-reuse-level=0 / scale-factor=0 / refine-intra=0 / refine-inter=0 / refine-mv=1 / refine-ctu-distortion=0 / no-limit-sao / ctu-info=0 / no-lowpass-dct / refine-analysis-type=0 / copy-pic=1 / max-ausize-factor=1.0 / no-dynamic-refine / no-single-sei / no-hevc-aq / no-svt / no-field / qp-adaptation-range=1.00 / scenecut-aware-qp=0conformance-window-offsets / right=0 / bottom=0 / decoder-max-rate=0 / no-vbv-live-multi-pass
  22. Default                                  : Yes
  23. Forced                                   : No
  24. Color range                              : Limited
  25. Color primaries                          : BT.2020
  26. Transfer characteristics                 : PQ
  27. Matrix coefficients                      : BT.2020 non-constant
  28. Mastering display color primaries        : BT.2020
  29. Mastering display luminance              : min: 0.0001 cd/m2, max: 1000 cd/m2

  30. Audio #1
  31. ID                                       : 2
  32. Format                                   : DTS XLL
  33. Format/Info                              : Digital Theater Systems
  34. Commercial name                          : DTS-HD Master Audio
  35. Codec ID                                 : A_DTS
  36. Duration                                 : 1 h 36 min
  37. Bit rate mode                            : Variable
  38. Bit rate                                 : 3 655 kb/s
  39. Channel(s)                               : 6 channels
  40. Channel layout                           : C L R Ls Rs LFE
  41. Sampling rate                            : 48.0 kHz
  42. Frame rate                               : 93.750 FPS (512 SPF)
  43. Bit depth                                : 24 bits
  44. Compression mode                         : Lossless
  45. Stream size                              : 2.45 GiB (7%)
  46. Language                                 : English
  47. Default                                  : Yes
  48. Forced                                   : No

  49. Audio #2
  50. ID                                       : 3
  51. Format                                   : DTS XLL
  52. Format/Info                              : Digital Theater Systems
  53. Commercial name                          : DTS-HD Master Audio
  54. Codec ID                                 : A_DTS
  55. Duration                                 : 1 h 36 min
  56. Bit rate mode                            : Variable
  57. Bit rate                                 : 1 734 kb/s
  58. Channel(s)                               : 2 channels
  59. Channel layout                           : L R
  60. Sampling rate                            : 48.0 kHz
  61. Frame rate                               : 93.750 FPS (512 SPF)
  62. Bit depth                                : 24 bits
  63. Compression mode                         : Lossless
  64. Stream size                              : 1.16 GiB (3%)
  65. Title                                    : Original Theatrical Stereo
  66. Language                                 : English
  67. Default                                  : No
  68. Forced                                   : No

  69. Audio #3
  70. ID                                       : 4
  71. Format                                   : AAC LC
  72. Format/Info                              : Advanced Audio Codec Low Complexity
  73. Codec ID                                 : A_AAC-2
  74. Duration                                 : 1 h 36 min
  75. Bit rate                                 : 120 kb/s
  76. Channel(s)                               : 2 channels
  77. Channel layout                           : L R
  78. Sampling rate                            : 48.0 kHz
  79. Frame rate                               : 46.875 FPS (1024 SPF)
  80. Compression mode                         : Lossy
  81. Delay relative to video                  : 20 ms
  82. Stream size                              : 82.4 MiB (0%)
  83. Title                                    : Commentary
  84. Language                                 : English
  85. Default                                  : No
  86. Forced                                   : No

  87. Audio #4
  88. ID                                       : 5
  89. Format                                   : AAC LC
  90. Format/Info                              : Advanced Audio Codec Low Complexity
  91. Codec ID                                 : A_AAC-2
  92. Duration                                 : 1 h 36 min
  93. Bit rate                                 : 113 kb/s
  94. Channel(s)                               : 2 channels
  95. Channel layout                           : L R
  96. Sampling rate                            : 48.0 kHz
  97. Frame rate                               : 46.875 FPS (1024 SPF)
  98. Compression mode                         : Lossy
  99. Delay relative to video                  : 20 ms
  100. Stream size                              : 77.4 MiB (0%)
  101. Title                                    : Commentary
  102. Language                                 : English
  103. Default                                  : No
  104. Forced                                   : No

复制代码


20190801120031.jpg

20190801120031.jpg

20190801120031.jpg

hao8k提示您,点击下方下载按钮立刻开始下载
异形魔怪/从地心窜出 Tremors.1990.2160p.UHD.BluRay.x265.10bit.HDR.DTS-HD.MA.5.1-GUHZER 37.11GB
Tremors.1990.2160p.UHD.BluRay.x265.10bit.HDR.DTS-HD.MA.5.1-GUHZER.torrent
         (93.46 KB, 下载次数: 2)

举报 使用道具

回复

评论 10

flashdown flashdown    发表于 2021-1-28 11:17:23 | 显示全部楼层
感谢分享!

举报 使用道具

回复
恭恭敬敬 恭恭敬敬    发表于 2021-3-6 18:56:07 | 显示全部楼层
谢谢楼主分享

举报 使用道具

回复
gjh1080 gjh1080    发表于 2021-3-7 23:01:23 | 显示全部楼层
谢谢分享

举报 使用道具

回复
恭恭敬敬 恭恭敬敬    发表于 2021-3-9 08:08:42 | 显示全部楼层
先谢楼主分享。

举报 使用道具

回复
qqawyl qqawyl    发表于 2021-3-27 09:07:41 | 显示全部楼层

' D7 B3 [* W7 {9 G" a感谢楼主分享!!!!
$ Z# ?8 V% j1 k4 _# |
) n6 t4 e( Z# e" k

举报 使用道具

回复
flashdown flashdown    发表于 2021-4-2 10:03:55 | 显示全部楼层
感谢楼主!

举报 使用道具

回复
qqawyl qqawyl    发表于 2021-4-5 19:09:31 | 显示全部楼层
支持楼主:) 9 k9 w9 \* z2 {0 r* ]$ J

举报 使用道具

回复
tsly tsly    发表于 2021-4-7 10:44:09 | 显示全部楼层
谢谢楼主分享

举报 使用道具

回复
TLB TLB    发表于 2021-4-8 11:01:16 | 显示全部楼层
谢谢楼主分享

举报 使用道具

回复
您需要登录后才可以回帖 登录 | 立即注册

本版积分规则

0

关注

1

粉丝

55093

主题
今日推荐
下载排行
最新电影
    • Hao8K.cn 专注4K蓝光原盘资源
    • 本站内容部分由用户自主分享和转载自互联网,不代表
    • 本网赞同其观点和对其真实性负责。如有侵权、违反国
    • 家法律行为请联系我们第一时间及时清除和处理!
    • 反馈邮箱:lanniao@1080pro.net

    QQ|小黑屋|hao8k.cn-蓝光电影网 ( 渝ICP备19014890号-2 )|网站地图

    Copyright ©2019-2020 Hao8k.cn (蓝光电影网)