QQ登录

只需一步,快速开始

切换到宽版
微信扫一扫 分享朋友圈

已有 192 人浏览分享

开启左侧

2012/2012世界末日 2012.2009.2160p.UHD.BluRay.x265.10bit.HDR.DTS-HD.MA.TrueHD.7.1.Atmos-SWTYBLZ 31.57GB

[复制链接]
192 5
画质标准:
10bit.HDR
音质编码:
Dolby-Atmos 
电影声道:
7.1声道


电影封面

马上注册 Hao8k.cn ,获得更好的体验,让你轻松玩转Hao8k

您需要 登录 才可以下载或查看,没有帐号?立即注册

x


译  名 2012 3D / 2012世界末日 / 2012地球毁灭 / 2012末日预言(港) / Farewell Atlantis
片  名 2012
年  代 2009
产  地 美国 / 加拿大
类  别 动作 / 科幻 / 冒险 / 灾难
语  言 英语 / 法语 / 藏语 / 汉语普通话 / 俄语 / 印地语 / 葡萄牙语 / 拉丁语 / 意大利语
上映日期 2009-11-13(中国大陆/美国) / 2012-11-20(中国大陆 3D)
IMDb评分  5.8/10 from 350700 users
豆瓣评分 7.9/10 from 471071 users
片  长 158分钟
导  演 罗兰·艾默里奇 Roland Emmerich
主  演
约翰·库萨克 John Cusack
阿曼达·皮特 Amanda Peet
切瓦特·埃加福 Chiwetel Ejiofor
坦迪·牛顿 Thandie Newton
奥利弗·普莱特 Oliver Platt
汤姆·麦卡锡 Tom McCarthy
伍迪·哈里森 Woody Harrelson
丹尼·格洛弗 Danny Glover
连姆·詹姆斯 Liam James
摩根·莉莉 Morgan Lily
扎特科·巴瑞克 Zlatko Buric
毕崔斯·罗森 Beatrice Rosen
乔翰·厄布 Johann Urb
约翰·比灵斯列 John Billingsley
黄经汉 Chin Han
周逸之 Osric Chau
张铮 Tseng Chang
卢燕 Lisa Lu
布鲁·曼库马 Blu Mankuma
乔治·席格 George Segal
帕特里克·波查 Patrick Bauchau
吉米·米斯特雷 Jimi Mistry
瑞安·麦克唐纳德 Ryan McDonald
玛丽莲·江恩 Merrilyn Gann
区亨利 Henry O
帕特里克·吉尔莫 Patrick Gilmore
韦弗·里库克 Viv Leacock
多隆·贝尔 Doron Bell
大卫·奥斯 David Orth
泰·奥尔森 Ty Olsson
Zinaid Memisevic
BJ·哈里森 BJ Harrison
Dominic Zamprogna
卡琳·考诺娃 Karin Konoval
Mary Gillis
Rick Tae
Parm Soor
杰拉德·普伦科特 Gerard Plunkett
伊芙·哈洛 Eve Harlow
肖恩·泰森 Sean Tyson
迈克尔·巴佛 Michael Buffer
达伦·A·赫伯特 Daren A. Herbert
朱迪·汤普森 Jody Thompson
坦娅·钱普 Tanya Champoux
弗兰克·C·特纳 Frank C. Turner
拉腊·萨迪克 Laara Sadiq
吉莲·芭伯 Gillian Barber
贝薇莉·埃利奥特 Beverley Elliott
阿加·达什 Agam Darshi
拉吉·拉尔 Raj Lal
杰克博·布莱尔 Jacob Blair
Scott E. Miller
安娜-梅劳特里奇 Anna Mae Routledge
艾迪·哈塞尔 Eddie Hassell
亚历桑德拉·卡斯蒂略 Alexandra Castillo
李利强 Leo Li Chiang
杰夫·古斯塔夫森 Geoff Gustafson
艾力克斯·萨哈拉 Alex Zahara
杰森·格里菲斯 Jason Griffith
吉尔·莫里森 Jill Morrison
姜广涛 Guangtao Jiang
张杰 Jie Zhang

简  介
  太阳活动异常,地球内部的能量平衡系统面临崩溃,玛雅人的预言即将实现,人类将遭遇灭顶之灾。各国政府已经联手开始秘密制造方舟,希望能躲过这一浩劫。以写科幻小说谋生的杰克逊(约翰·库萨克 John Cusack 饰)在带孩子们到黄石公园渡周末时发生一连串怪事,而且遇到了神经兮兮的查理(伍迪·哈里森 Woody Harrelson 饰),查理告诉他世界末日即将来临。伴随着火山爆发,强烈地震以及海啸,杰克逊带领自己的家人驾驶一架临时租来的飞机冲出被死神阴霾瞬间笼罩的城市上空,开始寻找查理口中各国政府正在联合秘密制造的方舟。在生死攸关的时刻,一些伟大的鬼魂将脱颖而出,而一些自私的心灵将无所遁形,当千千万万个生灵通过各种方法来到方舟制造基地之时,方舟有限的容纳数量引发前所未有的恐慌。最终,仅存的人们用互爱和对生命的尊重渡过了难关。本片被称为《后天》的升级版,投资超过2亿美元,是灾难片大师罗兰·艾默里奇(Roland Emmerich)的最新力作。

获奖情况
  第14届圣地亚哥影评人协会奖(2009)
  年度劳模 伍迪·哈里森

  第12届美国青少年选择奖(2010)
  最佳科幻电影(提名)
  最佳科幻电影男演员(提名) 约翰·库萨克
  最佳科幻电影女演员(提名) 阿曼达·皮特

影片参数

  1. Video
  2. ID                                       : 1
  3. Format                                   : HEVC
  4. Format/Info                              : High Efficiency Video Coding
  5. Format profile                           : Main 10@L5.1@High
  6. HDR format                               : SMPTE ST 2086, HDR10 compatible
  7. Codec ID                                 : V_MPEGH/ISO/HEVC
  8. Duration                                 : 2 h 37 min
  9. Bit rate                                 : 17.9 Mb/s
  10. Width                                    : 3 840 pixels
  11. Height                                   : 1 600 pixels
  12. Display aspect ratio                     : 2.40:1
  13. Frame rate mode                          : Constant
  14. Frame rate                               : 23.976 (24000/1001) FPS
  15. Color space                              : YUV
  16. Chroma subsampling                       : 4:2:0 (Type 2)
  17. Bit depth                                : 10 bits
  18. Bits/(Pixel*Frame)                       : 0.122
  19. Stream size                              : 19.7 GiB (63%)
  20. Writing library                          : x265 3.0_Au+10-74a8672ea4f7:[Windows][GCC 8.2.1][64 bit] 10bit
  21. Encoding settings                        : cpuid=1111039 / frame-threads=6 / numa-pools=40 / wpp / no-pmode / no-pme / no-psnr / no-ssim / log-level=2 / input-csp=1 / input-res=3840x1600 / interlace=0 / total-frames=0 / level-idc=51 / high-tier=1 / uhd-bd=0 / ref=3 / no-allow-non-conformance / repeat-headers / annexb / aud / hrd / info / hash=0 / no-temporal-layers / no-open-gop / min-keyint=1 / keyint=24 / gop-lookahead=0 / bframes=4 / b-adapt=2 / b-pyramid / bframe-bias=0 / rc-lookahead=25 / lookahead-slices=4 / scenecut=40 / radl=0 / no-splice / no-intra-refresh / ctu=64 / min-cu-size=8 / no-rect / no-amp / max-tu-size=32 / tu-inter-depth=1 / tu-intra-depth=1 / limit-tu=0 / rdoq-level=0 / dynamic-rd=0.00 / no-ssim-rd / signhide / no-tskip / nr-intra=0 / nr-inter=0 / no-constrained-intra / strong-intra-smoothing / max-merge=2 / limit-refs=3 / no-limit-modes / me=1 / subme=2 / merange=57 / temporal-mvp / weightp / no-weightb / no-analyze-src-pics / deblock=0:0 / no-sao / no-sao-non-deblock / rd=3 / no-early-skip / rskip / no-fast-intra / no-tskip-fast / no-cu-lossless / no-b-intra / no-splitrd-skip / rdpenalty=0 / psy-rd=2.00 / psy-rdoq=0.00 / no-rd-refine / no-lossless / cbqpoffs=0 / crqpoffs=0 / rc=crf / crf=16.0 / qcomp=0.60 / qpstep=4 / stats-write=0 / stats-read=0 / vbv-maxrate=160000 / vbv-bufsize=160000 / vbv-init=0.9 / crf-max=0.0 / crf-min=0.0 / ipratio=1.40 / pbratio=1.30 / aq-mode=1 / aq-strength=1.00 / cutree / zone-count=0 / no-strict-cbr / qg-size=32 / no-rc-grain / qpmax=69 / qpmin=0 / no-const-vbv / sar=1 / overscan=0 / videoformat=5 / range=0 / colorprim=9 / transfer=16 / colormatrix=9 / chromaloc=1 / chromaloc-top=2 / chromaloc-bottom=2 / display-window=0 / master-display=G(13250,34500)B(7500,3000)R(34000,16000)WP(15635,16450)L(40000000,50) / max-cll=4451,514 / min-luma=0 / max-luma=1023 / log2-max-poc-lsb=8 / vui-timing-info / vui-hrd-info / slices=1 / opt-qp-pps / opt-ref-list-length-pps / no-multi-pass-opt-rps / scenecut-bias=0.05 / no-opt-cu-delta-qp / no-aq-motion / hdr / hdr-opt / no-dhdr10-opt / no-idr-recovery-sei / analysis-reuse-level=5 / scale-factor=0 / refine-intra=0 / refine-inter=0 / refine-mv=0 / refine-ctu-distortion=0 / no-limit-sao / ctu-info=0 / no-lowpass-dct / refine-analysis-type=0 / copy-pic=1 / max-ausize-factor=1.0 / no-dynamic-refine / no-single-sei / no-hevc-aq / no-svt / qp-adaptation-range=1.00
  22. Default                                  : Yes
  23. Forced                                   : No
  24. Color range                              : Limited
  25. Color primaries                          : BT.2020
  26. Transfer characteristics                 : PQ
  27. Matrix coefficients                      : BT.2020 non-constant
  28. Mastering display color primaries        : Display P3
  29. Mastering display luminance              : min: 0.0050 cd/m2, max: 4000 cd/m2
  30. Maximum Content Light Level              : 4451 cd/m2
  31. Maximum Frame-Average Light Level        : 514 cd/m2

  32. Audio #1
  33. ID                                       : 2
  34. Format                                   : MLP FBA 16-ch
  35. Format/Info                              : Meridian Lossless Packing FBA with 16-channel presentation
  36. Commercial name                          : Dolby TrueHD with Dolby Atmos
  37. Codec ID                                 : A_TRUEHD
  38. Duration                                 : 2 h 37 min
  39. Bit rate mode                            : Variable
  40. Bit rate                                 : 4 860 kb/s
  41. Maximum bit rate                         : 7 908 kb/s
  42. Channel(s)                               : 8 channels
  43. Channel layout                           : L R C LFE Ls Rs Lb Rb
  44. Sampling rate                            : 48.0 kHz
  45. Frame rate                               : 1 200.000 FPS (40 SPF)
  46. Compression mode                         : Lossless
  47. Stream size                              : 5.36 GiB (17%)
  48. Title                                    : TrueHD Atmos 7.1
  49. Language                                 : English
  50. Default                                  : Yes
  51. Forced                                   : No
  52. Number of dynamic objects                : 11
  53. Bed channel count                        : 1 channel
  54. Bed channel configuration                : LFE

  55. Audio #2
  56. ID                                       : 3
  57. Format                                   : DTS XLL
  58. Format/Info                              : Digital Theater Systems
  59. Commercial name                          : DTS-HD Master Audio
  60. Codec ID                                 : A_DTS
  61. Duration                                 : 2 h 37 min
  62. Bit rate mode                            : Variable
  63. Bit rate                                 : 4 589 kb/s
  64. Channel(s)                               : 8 channels
  65. Channel layout                           : C L R LFE Lb Rb Lss Rss
  66. Sampling rate                            : 48.0 kHz
  67. Frame rate                               : 93.750 FPS (512 SPF)
  68. Bit depth                                : 24 bits
  69. Compression mode                         : Lossless
  70. Stream size                              : 5.06 GiB (16%)
  71. Title                                    : DTS-HD MA 7.1
  72. Language                                 : English
  73. Default                                  : No
  74. Forced                                   : No

  75. Audio #3
  76. ID                                       : 4
  77. Format                                   : AC-3
  78. Format/Info                              : Audio Coding 3
  79. Commercial name                          : Dolby Digital
  80. Codec ID                                 : A_AC3
  81. Duration                                 : 2 h 37 min
  82. Bit rate mode                            : Constant
  83. Bit rate                                 : 640 kb/s
  84. Channel(s)                               : 6 channels
  85. Channel layout                           : L R C LFE Ls Rs
  86. Sampling rate                            : 48.0 kHz
  87. Frame rate                               : 31.250 FPS (1536 SPF)
  88. Compression mode                         : Lossy
  89. Stream size                              : 723 MiB (2%)
  90. Title                                    : DD 5.1
  91. Language                                 : English
  92. Service kind                             : Complete Main
  93. Default                                  : No
  94. Forced                                   : No

复制代码
















hao8k提示您,点击下方下载按钮立刻开始下载
2012/2012世界末日 2012.2009.2160p.UHD.BluRay.x265.10bit.HDR.DTS-HD.MA.TrueHD.7.1.Atmos-SWTYBLZ 31.57GB
2012.2009.2160p.UHD.BluRay.x265.10bit.HDR.DTS-HD.MA.TrueHD.7.1.Atmos-SWTYBLZ.torrent
         (79.55 KB, 下载次数: 1)

举报 使用道具

回复

评论 5

flashdown flashdown    发表于 2021-1-29 08:48:43 | 显示全部楼层
终于出4k了,感谢楼主分享

举报 使用道具

回复
恭恭敬敬 恭恭敬敬    发表于 2021-3-6 19:02:18 | 显示全部楼层
谢谢楼主分享。

举报 使用道具

回复
无畏 无畏    发表于 2021-3-15 16:09:49 | 显示全部楼层
谢谢楼主分享

举报 使用道具

回复
TLB TLB    发表于 2021-3-31 07:59:41 | 显示全部楼层
回复下载看电影,谢谢楼主分享。

举报 使用道具

回复
weffewwe weffewwe    发表于 2021-4-30 11:36:52 | 显示全部楼层
QQ 108025336=出-售  桑=拿=女 按=摩=女  模=特= 外=围=女=资=料 良=家 学=生=妹=信=息5 z6 |# d8 i0 V  k8 y8 q( B, C
$ m; N9 o9 d3 ^7 H: P

$ t3 W7 @) d" z
9 A; x) b: K% }; s" `. y* f2 z

举报 使用道具

回复
您需要登录后才可以回帖 登录 | 立即注册

本版积分规则

0

关注

1

粉丝

55093

主题
今日推荐
下载排行
最新电影
    • Hao8K.cn 专注4K蓝光原盘资源
    • 本站内容部分由用户自主分享和转载自互联网,不代表
    • 本网赞同其观点和对其真实性负责。如有侵权、违反国
    • 家法律行为请联系我们第一时间及时清除和处理!
    • 反馈邮箱:lanniao@1080pro.net

    QQ|小黑屋|hao8k.cn-蓝光电影网 ( 渝ICP备19014890号-2 )|网站地图

    Copyright ©2019-2020 Hao8k.cn (蓝光电影网)