游客您好
第三方账号登陆
  • 点击联系客服

    在线时间:8:00-16:00

    电子邮件

    lanniao@4kpro.cn
  • 扫描二维码

    访问小程序

  • 扫描二维码

    访问手机版

推荐阅读
Hao8k资源组
未知星球 | 未知职业
  • 关注0
  • 粉丝1
  • 帖子57008
精选帖子
开启左侧

[动画片] 蝙蝠侠:龙之魂 Batman.Soul.of.the.Dragon.2021.1080p.BluRay.x264.DTS-HD.MA.5.1-MT 9.14GB

[复制链接]
Hao8k资源组 发表于 2021-1-27 12:13:29 | 显示全部楼层 |阅读模式 打印 上一主题 下一主题

马上注册 Hao8k.cn ,获得更好的体验,让你轻松玩转Hao8k

您需要 登录 才可以下载或查看,没有帐号?立即注册

x
20190801120031.jpg

译  名 蝙蝠侠:龙之魂
片  名 Batman: Soul of the Dragon
年  代 2021
产  地 美国
类  别 动画
语  言 英语
上映日期 2021-04-05(美国)
豆瓣评分 0/10 from 0 users
导  演 刘山姆 Sam Liu
主  演
吴汉章 James Hong
胡凯莉 Kelly Hu
马克·达卡斯考斯 Mark Dacascos
迈克尔·加·怀特 Michael Jai White
大卫·君图力 David Giuntoli
乔什·基顿 Josh Keaton

简  介
  上世纪70年代,一位失踪的武术老师是他忠诚而聪明但距离较远的学生(包括蝙蝠侠)寻找的对象。

影片参数
  1. Video
  2. ID                                       : 1
  3. Format                                   : AVC
  4. Format/Info                              : Advanced Video Codec
  5. Format profile                           : High@L4.1
  6. Format settings                          : CABAC / 4 Ref Frames
  7. Format settings, CABAC                   : Yes
  8. Format settings, Reference frames        : 4 frames
  9. Codec ID                                 : V_MPEG4/ISO/AVC
  10. Duration                                 : 1 h 22 min
  11. Bit rate                                 : 13.4 Mb/s
  12. Width                                    : 1 920 pixels
  13. Height                                   : 1 080 pixels
  14. Display aspect ratio                     : 16:9
  15. Frame rate mode                          : Constant
  16. Frame rate                               : 23.976 (24000/1001/45775) FPS
  17. Color space                              : YUV
  18. Chroma subsampling                       : 4:2:0
  19. Bit depth                                : 8 bits
  20. Scan type                                : Progressive
  21. Bits/(Pixel*Frame)                       : 0.270
  22. Stream size                              : 7.77 GiB (85%)
  23. Writing liary                          : x264 core 157 r2938 2b00a84 TnP@MTeam Mod
  24. Encoding settings                        : cabac=1 / ref=4 / deblock=1:-3:-3 / analyse=0x3:0x133 / me=umh / subme=10 / psy=1 / psy_rd=1.05:0.00 / mixed_ref=1 / me_range=32 / chroma_me=1 / trellis=2 / 8x8dct=1 / cqm=0 / deadzone=21,11 / fast_pskip=0 / chroma_qp_offset=-2 / threads=12 / lookahead_threads=2 / sliced_threads=0 / nr=0 / decimate=0 / interlaced=0 / NDU3NzU= / bluray_compat=0 / constrained_intra=0 / bframes=8 / b_pyramid=2 / b_adapt=2 / b_bias=0 / direct=3 / weightb=1 / open_gop=0 / weightp=2 / keyint=250 / keyint_min=24 / scenecut=40 / intra_refresh=0 / rc_lookahead=250 / rc=crf / mbtree=0 / crf=16.8 / qcomp=0.60 / qpmin=0 / qpmax=69 / qpstep=4 / vbv_maxrate=62500 / vbv_bufsize=78125 / crf_max=0.0 / nal_hrd=none / filler=0 / NDU3NzU=feCb3SYgnbojFoo / ip_ratio=1.30 / pb_ratio=1.20 / aq=3:0.80
  25. Language                                 : English
  26. Default                                  : Yes
  27. Forced                                   : No
  28. Color range                              : Limited
  29. Color primaries                          : BT.709
  30. Matrix coefficients                      : BT.709

  31. Audio
  32. ID                                       : 2
  33. Format                                   : DTS XLL
  34. Format/Info                              : Digital Theater Systems
  35. Commercial name                          : DTS-HD Master Audio
  36. Codec ID                                 : A_DTS
  37. Duration                                 : 1 h 22 min
  38. Bit rate mode                            : Variable
  39. Bit rate                                 : 2 374 kb/s
  40. Channel(s)                               : 6 channels
  41. Channel layout                           : C L R Ls Rs LFE
  42. Sampling rate                            : 48.0 kHz
  43. Frame rate                               : 93.750 FPS (512 SPF)
  44. Bit depth                                : 24 bits
  45. Compression mode                         : Lossless
  46. Stream size                              : 1.37 GiB (15%)
  47. Language                                 : English
  48. Default                                  : Yes
  49. Forced                                   : No

复制代码


20190801120031.jpg

20190801120031.jpg

20190801120031.jpg

hao8k提示您,点击下方下载按钮立刻开始下载
蝙蝠侠:龙之魂 Batman.Soul.of.the.Dragon.2021.1080p.BluRay.x264.DTS-HD.MA.5.1-MT 9.14GB
Batman.Soul.of.the.Dragon.2021.1080p.BluRay.x264.DTS-HD.MA.5.1-MT.torrent (46.27 KB, 下载次数: 5)

遇到问题怎么办?
Hao8k小助手精心为您解答:

蓝光资源该怎么播放?Hao8k精选播放软件汇总
用什么下载Hao8k资源呢?精选下载软件合辑
去看看新手学院,Hao8k小助手带你玩转高清
回复

使用道具 举报

精彩评论19

TLB 发表于 2021-2-13 19:41:06 | 显示全部楼层
谢谢楼主分.
回复

使用道具 举报

timsun1984 发表于 2021-2-16 23:57:05 | 显示全部楼层
很有感觉的电影,非常感谢
回复

使用道具 举报

恭恭敬敬 发表于 2021-3-17 08:30:04 | 显示全部楼层
先谢楼主分享。
回复

使用道具 举报

tsly 发表于 2021-4-4 17:13:42 | 显示全部楼层

谢谢楼主分享
回复

使用道具 举报

qqawyl 发表于 2021-4-11 10:35:29 | 显示全部楼层
支持楼主——-
回复

使用道具 举报

wto-f22 发表于 2021-4-14 17:59:00 | 显示全部楼层
谢谢楼主分享:victory:
回复

使用道具 举报

gdlmxia 发表于 2021-5-9 08:32:12 | 显示全部楼层
太好啦&萬分感謝版主的無私發佈分享%
回复

使用道具 举报

TLB 发表于 2021-7-4 19:32:51 | 显示全部楼层
回复下载看电影谢谢楼主分享。
回复

使用道具 举报

liyongjie0224 发表于 2021-7-10 22:22:43 | 显示全部楼层
这个是动画片的吗?清晰度怎么样?
回复

使用道具 举报

您需要登录后才可以回帖 登录 | 立即注册

本版积分规则

蓝光电影网内容部分由用户自主分享和转载自互联网,转载目的在于传递更多信息,并不代表本网赞同其观点和对其真实性负责。 如有侵权、违反国家法律政策行为,请联系我们,我们会第一时间及时清除和处理!
移动端
  • 扫码访问小程序
  • 扫码访问手机端

Powered by 蓝光电影网 X3.4© 2021-2022 Hao8k.cn |网站地图