游客您好
第三方账号登陆
  • 点击联系客服

    在线时间:8:00-16:00

    电子邮件

    lanniao@4kpro.cn
  • 扫描二维码

    访问小程序

  • 扫描二维码

    访问手机版

推荐阅读
Hao8k资源组
未知星球 | 未知职业
  • 关注0
  • 粉丝1
  • 帖子57008
精选帖子
开启左侧

[惊悚片] 车底游魂/辣手碎情花 Drive.a.Crooked.Road.1954.1080p.BluRay.x264-ORBS 8.39GB

[复制链接]
Hao8k资源组 发表于 2021-1-27 12:10:44 | 显示全部楼层 |阅读模式 打印 上一主题 下一主题

马上注册 Hao8k.cn ,获得更好的体验,让你轻松玩转Hao8k

您需要 登录 才可以下载或查看,没有帐号?立即注册

x
20190801120031.jpg

译  名 车底游魂 / 辣手碎情花
片  名 Drive a Crooked Road
年  代 1954
产  地 美国
类  别 惊悚 / 黑色电影
语  言 英语
上映日期 1954-04-02
IMDb评分  7.0/10 from 1044 users
豆瓣评分 0/10 from 0 users
片  长 83 分钟
导  演 理查德·奎因 Richard Quine
主  演
米基·鲁尼 Mickey Rooney
黛安妮·佛斯特 Dianne Foster
凯文·麦卡锡 Kevin McCarthy
杰克·凯利 Jack Kelly
Harry Landers
杰里·帕里斯 Jerry Paris

简  介
  暂无相关剧情介绍

影片参数

  1. Video
  2. ID                                       : 1
  3. Format                                   : AVC
  4. Format/Info                              : Advanced Video Codec
  5. Format profile                           : High@L4.1
  6. Format settings                          : CABAC / 4 Ref Frames
  7. Format settings, CABAC                   : Yes
  8. Format settings, Reference frames        : 4 frames
  9. Codec ID                                 : V_MPEG4/ISO/AVC
  10. Duration                                 : 1 h 22 min
  11. Bit rate                                 : 13.8 Mb/s
  12. Width                                    : 1 920 pixels
  13. Height                                   : 1 040 pixels
  14. Display aspect ratio                     : 1.85:1
  15. Frame rate mode                          : Constant
  16. Frame rate                               : 23.976 (24000/1001) FPS
  17. Color space                              : YUV
  18. Chroma subsampling                       : 4:2:0
  19. Bit depth                                : 8 bits
  20. Scan type                                : Progressive
  21. Bits/(Pixel*Frame)                       : 0.289
  22. Stream size                              : 7.99 GiB (95%)
  23. Writing library                          : x264 core 161 r3027 4121277
  24. Encoding settings                        : cabac=1 / ref=4 / deblock=1:-3:-3 / analyse=0x3:0x133 / me=umh / subme=10 / psy=1 / psy_rd=1.50:0.15 / mixed_ref=1 / me_range=24 / chroma_me=1 / trellis=2 / 8x8dct=1 / cqm=0 / deadzone=21,11 / fast_pskip=0 / chroma_qp_offset=-3 / threads=24 / lookahead_threads=4 / sliced_threads=0 / nr=0 / decimate=0 / interlaced=0 / bluray_compat=0 / constrained_intra=0 / bframes=8 / b_pyramid=2 / b_adapt=2 / b_bias=0 / direct=3 / weightb=1 / open_gop=0 / weightp=2 / keyint=250 / keyint_min=23 / scenecut=40 / intra_refresh=0 / rc_lookahead=60 / rc=crf / mbtree=1 / crf=24.5 / qcomp=0.60 / qpmin=0 / qpmax=69 / qpstep=4 / ip_ratio=1.40 / aq=3:0.50
  25. Default                                  : Yes
  26. Forced                                   : No
  27. Color range                              : Limited
  28. Matrix coefficients                      : BT.709
  29. Audio #1
  30. ID                                       : 2
  31. Format                                   : FLAC
  32. Format/Info                              : Free Lossless Audio Codec
  33. Codec ID                                 : A_FLAC
  34. Duration                                 : 1 h 22 min
  35. Bit rate mode                            : Variable
  36. Bit rate                                 : 580 kb/s
  37. Channel(s)                               : 1 channel
  38. Channel layout                           : C
  39. Sampling rate                            : 48.0 kHz
  40. Frame rate                               : 11.719 FPS (4096 SPF)
  41. Bit depth                                : 24 bits
  42. Compression mode                         : Lossless
  43. Stream size                              : 343 MiB (4%)
  44. Writing library                          : libFLAC 1.3.2 (UTC 2017-01-01)
  45. Language                                 : English
  46. Default                                  : Yes
  47. Forced                                   : No
  48. Audio #2
  49. ID                                       : 3
  50. Format                                   : AAC LC
  51. Format/Info                              : Advanced Audio Codec Low Complexity
  52. Codec ID                                 : A_AAC-2
  53. Duration                                 : 1 h 22 min
  54. Bit rate                                 : 82.7 kb/s
  55. Channel(s)                               : 2 channels
  56. Channel layout                           : L R
  57. Sampling rate                            : 48.0 kHz
  58. Frame rate                               : 46.875 FPS (1024 SPF)
  59. Compression mode                         : Lossy
  60. Delay relative to video                  : 20 ms
  61. Stream size                              : 49.0 MiB (1%)
  62. Title                                    : Commentary
  63. Language                                 : English
  64. Default                                  : No
  65. Forced                                   : No
  66. Text
  67. ID                                       : 4
  68. Format                                   : PGS
  69. Muxing mode                              : zlib
  70. Codec ID                                 : S_HDMV/PGS
  71. Codec ID/Info                            : Picture based subtitle format used on BDs/HD-DVDs
  72. Duration                                 : 1 h 21 min
  73. Bit rate                                 : 46.3 kb/s
  74. Count of elements                        : 2444
  75. Stream size                              : 27.1 MiB (0%)
  76. Title                                    : SDH
  77. Language                                 : English
  78. Default                                  : No
  79. Forced                                   : No
复制代码


20190801120031.jpg

hao8k提示您,点击下方下载按钮立刻开始下载
车底游魂/辣手碎情花 Drive.a.Crooked.Road.1954.1080p.BluRay.x264-ORBS 8.39GB
Drive.a.Crooked.Road.1954.1080p.BluRay.x264-ORBS.torrent (42.59 KB, 下载次数: 0)

遇到问题怎么办?
Hao8k小助手精心为您解答:

蓝光资源该怎么播放?Hao8k精选播放软件汇总
用什么下载Hao8k资源呢?精选下载软件合辑
去看看新手学院,Hao8k小助手带你玩转高清
回复

使用道具 举报

精彩评论9

TLB 发表于 2021-2-10 09:36:48 | 显示全部楼层
谢谢楼主分享。
回复

使用道具 举报

hao8kadmin 发表于 2021-2-22 11:24:44 | 显示全部楼层
回复

使用道具 举报

flashdown 发表于 2021-2-22 18:51:17 | 显示全部楼层
感谢分享!
回复

使用道具 举报

qqawyl 发表于 2021-4-2 20:01:38 | 显示全部楼层
很喜欢这部电影-----感谢楼主分享
回复

使用道具 举报

qqawyl 发表于 2021-4-2 20:07:03 | 显示全部楼层
很喜欢这部电影-----感谢楼主分享
回复

使用道具 举报

恭恭敬敬 发表于 2021-4-7 08:12:03 | 显示全部楼层
先谢楼主分享。
回复

使用道具 举报

gdlmxia 发表于 2021-4-15 10:09:45 | 显示全部楼层
太好啦&萬分感謝版主的無私發佈分享%
回复

使用道具 举报

TLB 发表于 2021-4-18 09:35:45 | 显示全部楼层
非常感谢Hao8k给大家的享乐4k,祝Hao8k越办越好!
回复

使用道具 举报

TLB 发表于 2021-4-22 09:11:28 | 显示全部楼层

谢谢楼主分享。
回复

使用道具 举报

您需要登录后才可以回帖 登录 | 立即注册

本版积分规则

蓝光电影网内容部分由用户自主分享和转载自互联网,转载目的在于传递更多信息,并不代表本网赞同其观点和对其真实性负责。 如有侵权、违反国家法律政策行为,请联系我们,我们会第一时间及时清除和处理!
移动端
  • 扫码访问小程序
  • 扫码访问手机端

Powered by 蓝光电影网 X3.4© 2021-2022 Hao8k.cn |网站地图