游客您好
第三方账号登陆
  • 点击联系客服

    在线时间:8:00-16:00

    电子邮件

    lanniao@4kpro.cn
  • 扫描二维码

    访问小程序

  • 扫描二维码

    访问手机版

推荐阅读
Hao8k资源组
未知星球 | 未知职业
  • 关注0
  • 粉丝1
  • 帖子57008
精选帖子
开启左侧

[喜剧片] 爱情,婚礼和其它灾难/爱、婚礼和其他灾难 Love.Weddings.and.Other.Disasters.2020.1080p.BluRay.x264.DTS-MT 12.84GB

[复制链接]
Hao8k资源组 发表于 2021-1-27 12:08:09 | 显示全部楼层 |阅读模式 打印 上一主题 下一主题

马上注册 Hao8k.cn ,获得更好的体验,让你轻松玩转Hao8k

您需要 登录 才可以下载或查看,没有帐号?立即注册

x
20190801120031.jpg

译  名 爱情,婚礼和其它灾难 / Love & Other Disasters / 爱、婚礼和其他灾难
片  名 Love, Weddings & Other Disasters
年  代 2020
产  地 美国
类  别 喜剧 / 爱情
语  言 英语
上映日期 2020-12-04(美国)
豆瓣评分 0/10 from 0 users
导  演 丹尼斯·杜根 Dennis Dugan
主  演
黛安·基顿 Diane Keaton
杰瑞米·艾恩斯 Jeremy Irons
玛姬·格蕾斯 Maggie Grace
迪耶戈·博内塔 Diego Boneta
托德·斯塔什维克 Todd Stashwick
杰西·麦卡尼 Jesse McCartney
安德鲁·巴切勒 Andrew Bachelor
钱德拉·韦斯特 Chandra West
丹尼斯·杜根 Dennis Dugan
理查德·克兰 Richard Kline
维罗尼卡·费瑞尔 Veronica Ferres
威廉·泽法尔茨 William Xifaras
梅林达·希尔 Melinda Hill
琪拉·皮查多 Kiara Pichardo
约瑟夫·奥利维拉 Joseph Oliveira
比利·康查 Billy Concha
Keaton Simons
Tarek Moussa

简  介
  戴安·基顿、杰瑞米·艾恩斯将主演一部以女性为主导的浪漫喜剧[爱情,婚礼和其它灾难](Love, Weddings & Other Disasters,暂译),丹尼斯·杜根([我盛大的同志婚礼])执导。DNCE吉他手JinJoo Lee、杰西·麦卡尼([鼠来宝])、维罗尼卡·费瑞尔([西伯利亚])同时出演。故事围绕婚礼上的工作人员为一对爱侣创造完美的一天,然而这对爱侣的关系却是异乎寻常、古怪、疯狂、远非完美的。影片将于下月美国波士顿开机。

影片参数
  1. Video
  2. ID                                       : 1
  3. Format                                   : AVC
  4. Format/Info                              : Advanced Video Codec
  5. Format profile                           : High@L4.1
  6. Format settings                          : CABAC / 4 Ref Frames
  7. Format settings, CABAC                   : Yes
  8. Format settings, Reference frames        : 4 frames
  9. Codec ID                                 : V_MPEG4/ISO/AVC
  10. Duration                                 : 1 h 36 min
  11. Bit rate                                 : 17.5 Mb/s
  12. Width                                    : 1 920 pixels
  13. Height                                   : 1 038 pixels
  14. Display aspect ratio                     : 1.85:1
  15. Frame rate mode                          : Constant
  16. Frame rate                               : 23.976 (24000/1001/45775) FPS
  17. Color space                              : YUV
  18. Chroma subsampling                       : 4:2:0
  19. Bit depth                                : 8 bits
  20. Scan type                                : Progressive
  21. Bits/(Pixel*Frame)                       : 0.367
  22. Stream size                              : 11.8 GiB (92%)
  23. Writing liary                          : x264 core 157 r2938 2b00a84 TnP@MTeam Mod
  24. Encoding settings                        : cabac=1 / ref=4 / deblock=1:-3:-3 / analyse=0x3:0x133 / me=umh / subme=10 / psy=1 / psy_rd=1.05:0.00 / mixed_ref=1 / me_range=32 / chroma_me=1 / trellis=2 / 8x8dct=1 / cqm=0 / deadzone=21,11 / fast_pskip=0 / chroma_qp_offset=-2 / threads=12 / lookahead_threads=2 / sliced_threads=0 / nr=0 / decimate=0 / interlaced=0 / NDU3NzU= / bluray_compat=0 / constrained_intra=0 / bframes=8 / b_pyramid=2 / b_adapt=2 / b_bias=0 / direct=3 / weightb=1 / open_gop=0 / weightp=2 / keyint=250 / keyint_min=24 / scenecut=40 / intra_refresh=0 / rc_lookahead=250 / rc=crf / mbtree=0 / crf=16.8 / qcomp=0.60 / qpmin=0 / qpmax=69 / qpstep=4 / vbv_maxrate=62500 / vbv_bufsize=78125 / crf_max=0.0 / nal_hrd=none / filler=0 / NDU3NzU=feCb3SYgnbojFoo / ip_ratio=1.30 / pb_ratio=1.20 / aq=3:0.80
  25. Language                                 : English
  26. Default                                  : Yes
  27. Forced                                   : No
  28. Color range                              : Limited
  29. Color primaries                          : BT.709
  30. Matrix coefficients                      : BT.709

  31. Audio
  32. ID                                       : 2
  33. Format                                   : DTS
  34. Format/Info                              : Digital Theater Systems
  35. Codec ID                                 : A_DTS
  36. Duration                                 : 1 h 36 min
  37. Bit rate mode                            : Constant
  38. Bit rate                                 : 1 509 kb/s
  39. Channel(s)                               : 6 channels
  40. Channel layout                           : C L R Ls Rs LFE
  41. Sampling rate                            : 48.0 kHz
  42. Frame rate                               : 93.750 FPS (512 SPF)
  43. Bit depth                                : 24 bits
  44. Compression mode                         : Lossy
  45. Stream size                              : 1.02 GiB (8%)
  46. Language                                 : English
  47. Default                                  : Yes
  48. Forced                                   : No

复制代码








20190801120031.jpg

20190801120031.jpg

20190801120031.jpg

hao8k提示您,点击下方下载按钮立刻开始下载
爱情,婚礼和其它灾难/爱、婚礼和其他灾难 Love.Weddings.and.Other.Disasters.2020.1080p.BluRay.x264.DTS-MT 12.84GB
Love.Weddings.and.Other.Disasters.2020.1080p.BluRay.x264.DTS-MT.torrent (64.77 KB, 下载次数: 0)

遇到问题怎么办?
Hao8k小助手精心为您解答:

蓝光资源该怎么播放?Hao8k精选播放软件汇总
用什么下载Hao8k资源呢?精选下载软件合辑
去看看新手学院,Hao8k小助手带你玩转高清
回复

使用道具 举报

精彩评论2

TLB 发表于 2021-2-2 09:23:18 | 显示全部楼层
回复下载看电影
回复

使用道具 举报

恭恭敬敬 发表于 2021-3-10 09:14:17 | 显示全部楼层
先谢楼主分享。
回复

使用道具 举报

您需要登录后才可以回帖 登录 | 立即注册

本版积分规则

蓝光电影网内容部分由用户自主分享和转载自互联网,转载目的在于传递更多信息,并不代表本网赞同其观点和对其真实性负责。 如有侵权、违反国家法律政策行为,请联系我们,我们会第一时间及时清除和处理!
移动端
  • 扫码访问小程序
  • 扫码访问手机端

Powered by 蓝光电影网 X3.4© 2021-2022 Hao8k.cn |网站地图