游客您好
第三方账号登陆
  • 点击联系客服

    在线时间:8:00-16:00

    电子邮件

    lanniao@4kpro.cn
  • 扫描二维码

    访问小程序

  • 扫描二维码

    访问手机版

推荐阅读
Hao8k资源组
未知星球 | 未知职业
  • 关注0
  • 粉丝1
  • 帖子59628
精选帖子
开启左侧

[喜剧片] 青春摇滚 The.Rocking.Horsemen.1992.JAPANESE.1080p.BluRay.x264-HANDJOB 11.22GB

[复制链接]
Hao8k资源组 发表于 2021-1-27 12:05:25 | 显示全部楼层 |阅读模式 打印 上一主题 下一主题

马上注册 Hao8k.cn ,获得更好的体验,让你轻松玩转Hao8k

您需要 登录 才可以下载或查看,没有帐号?立即注册

x
20190801120031.jpg

译  名 青春摇滚 / Seishun dendekedekedeke / The Rocking Horsemen
片  名 青春デンデケデケデケ
年  代 1992
产  地 日本
类  别 喜剧
语  言 日语
上映日期 1992-10-31
IMDb评分  6.5/10 from 86 users
豆瓣评分 0/10 from 0 users
片  长 Japan: 135 分钟
导  演 大林宣彦 Nobuhiko Obayashi
主  演
前田武彦 Takehiko Maeda
尾藤功男 Isao Bitô
柳原晴郎 Bengaru
矢泽由美 Kaori Mizushima
奥村公延 Kôen Okumura
Tomoka Shibayama
高桥香织 Kaori Takahashi
小栗香织 Kaori Oguri
磨赤儿 Akaji Maro
泷泽凉子 Ryoko Takizawa
入江若叶 Wakaba Irie
河原萨布 Sabu Kawahara
根岸季衣 Toshie Negishi
南野阳子 Yôko Minamino
伊豆肇 Hajime Izu
大森嘉之 Yoshiyuki Omori
岸部一德 Ittoku Kishibe
胜野洋 Hiroshi Katsuno
石田百合子 Yuriko Ishida
佐野史郎 Shirô Sano
林泰文 Yasufumi Hayashi
尾美利德 Toshinori Omi
浅野忠信 Tadanobu Asano

简  介
  一天中午,收音机里播放的摇滚乐《途中》震撼了藤原竹良,他决心升入高中后组织一支摇滚乐队。自然而然地,搞贝司的合田富士男、搞吉他的白井清一、弄鼓的冈下巧和主唱藤原竹良聚在了一起。他们在暑假通过打工挣钱购买了乐器,电吉他的声音首次在小城回荡。谷口静夫给乐队做了一个扩音器,也成为了乐队的名誉会员。他们在河边排练,在快餐店开业庆典上演出,并得到了学校的认可。高中生活转瞬即逝,冈下发生了初吻事件,藤原也在夏季结束之时和女同学去了海水浴场……在高中三年级举行的文化节上,乐队进行了成功的演出。大家即将分离,伙伴们鼓励藤原:“加油!你是我们乐队的终身领导。”带着美好的回忆和无数的歌,藤原到东京上大学。也许导演大林宜彦自己都没有意识到,这部影片很可能是他第一部真正有价值的作品,但也可能是他最后一部有价值的作品,原因在于想要超越它是一件非常困难的事情。影片以日本1960年代流行的电吉他热为背景,描写了一群组织摇滚乐队的高中生形象,时代的气息非常浓。故事情节设置一般,但那些到处散布着青春气息。

获奖情况
  第16届日本电影学院奖(1993)
  最佳影片(提名)
  最佳编剧(提名) 石森史郎
  最佳配乐 久石让

  第17届报知映画赏(1992)
  最佳新人奖 大森嘉之

影片参数
  1. Video
  2. ID                                       : 1
  3. Format                                   : AVC
  4. Format/Info                              : Advanced Video Codec
  5. Format profile                           : High@L4.1
  6. Format settings                          : CABAC / 4 Ref Frames
  7. Format settings, CABAC                   : Yes
  8. Format settings, Reference frames        : 4 frames
  9. Codec ID                                 : V_MPEG4/ISO/AVC
  10. Duration                                 : 2 h 15 min
  11. Bit rate                                 : 11.6 Mb/s
  12. Width                                    : 1 920 pixels
  13. Height                                   : 1 036 pixels
  14. Display aspect ratio                     : 1.85:1
  15. Frame rate mode                          : Constant
  16. Frame rate                               : 23.976 (24000/1001/45775) FPS
  17. Color space                              : YUV
  18. Chroma subsampling                       : 4:2:0
  19. Bit depth                                : 8 bits
  20. Scan type                                : Progressive
  21. Bits/(Pixel*Frame)                       : 0.244
  22. Stream size                              : 11.0 GiB (98%)
  23. Writing liary                          : x264 core 157 r2935 545de2f
  24. Encoding settings                        : cabac=1 / ref=4 / deblock=1:-3:-3 / analyse=0x3:0x133 / me=umh / subme=10 / psy=1 / psy_rd=1.00:0.00 / mixed_ref=1 / me_range=32 / chroma_me=1 / trellis=2 / 8x8dct=1 / cqm=0 / deadzone=21,11 / fast_pskip=0 / chroma_qp_offset=-2 / threads=12 / lookahead_threads=3 / sliced_threads=0 / nr=0 / decimate=0 / interlaced=0 / NDU3NzU= / bluray_compat=0 / constrained_intra=0 / bframes=16 / b_pyramid=2 / b_adapt=2 / b_bias=0 / direct=3 / weightb=1 / open_gop=0 / weightp=2 / keyint=240 / keyint_min=24 / scenecut=40 / intra_refresh=0 / rc_lookahead=60 / rc=crf / mbtree=0 / crf=20.0 / qcomp=0.60 / qpmin=0 / qpmax=69 / qpstep=4 / vbv_maxrate=62500 / vbv_bufsize=78125 / crf_max=0.0 / nal_hrd=none / filler=0 / NDU3NzU=feCb3SYgnbojFoo / ip_ratio=1.40 / pb_ratio=1.30 / aq=2:1.00
  25. Default                                  : Yes
  26. Forced                                   : No
  27. Color range                              : Limited
  28. Color primaries                          : BT.709
  29. Transfer characteristics                 : BT.709
  30. Matrix coefficients                      : BT.709

  31. Audio
  32. ID                                       : 2
  33. Format                                   : AAC LC
  34. Format/Info                              : Advanced Audio Codec Low Complexity
  35. Codec ID                                 : A_AAC-2
  36. Duration                                 : 2 h 15 min
  37. Bit rate                                 : 224 kb/s
  38. Channel(s)                               : 2 channels
  39. Channel layout                           : L R
  40. Sampling rate                            : 48.0 kHz
  41. Frame rate                               : 46.875 FPS (1024 SPF)
  42. Compression mode                         : Lossy
  43. Stream size                              : 217 MiB (2%)
  44. Language                                 : Japanese
  45. Default                                  : Yes
  46. Forced                                   : No

复制代码

[size=10.6667px]
20190801120031.jpg

[size=10.6667px]
20190801120031.jpg

[size=10.6667px]
20190801120031.jpg

hao8k提示您,点击下方下载按钮立刻开始下载
青春摇滚 The.Rocking.Horsemen.1992.JAPANESE.1080p.BluRay.x264-HANDJOB 11.22GB
The.Rocking.Horsemen.1992.JAPANESE.1080p.BluRay.x264-HANDJOB.torrent (56.66 KB, 下载次数: 0)

遇到问题怎么办?
Hao8k小助手精心为您解答:

蓝光资源该怎么播放?Hao8k精选播放软件汇总
用什么下载Hao8k资源呢?精选下载软件合辑
去看看新手学院,Hao8k小助手带你玩转高清
回复

使用道具 举报

精彩评论1

TLB 发表于 2021-9-2 11:00:38 | 显示全部楼层
回复下载看电影,谢谢楼主分享。
回复

使用道具 举报

您需要登录后才可以回帖 登录 | 立即注册

本版积分规则

蓝光电影网内容部分由用户自主分享和转载自互联网,转载目的在于传递更多信息,并不代表本网赞同其观点和对其真实性负责。 如有侵权、违反国家法律政策行为,请联系我们,我们会第一时间及时清除和处理!
移动端
  • 扫码访问小程序
  • 扫码访问手机端

Powered by 蓝光电影网 X3.4© 2021-2022 Hao8k.cn |网站地图