游客您好
第三方账号登陆
  • 点击联系客服

    在线时间:8:00-16:00

    电子邮件

    lanniao@4kpro.cn
  • 扫描二维码

    访问小程序

  • 扫描二维码

    访问手机版

推荐阅读
Hao8k资源组
未知星球 | 未知职业
  • 关注0
  • 粉丝1
  • 帖子57008
精选帖子
开启左侧

[剧情片] 许愿人 Wish.Man.2019.1080p.BluRay.x264-GETiT 9.73GB

[复制链接]
Hao8k资源组 发表于 2021-1-27 12:01:16 | 显示全部楼层 |阅读模式 打印 上一主题 下一主题

马上注册 Hao8k.cn ,获得更好的体验,让你轻松玩转Hao8k

您需要 登录 才可以下载或查看,没有帐号?立即注册

x
20190801120031.jpg

译  名 许愿人
片  名 Wish Man
年  代 2019
产  地 美国
类  别 剧情 / 传记
语  言 英语
上映日期 2019-06-07(美国)
IMDb评分  7.1/10 from 1415 users
豆瓣评分 0/10 from 0 users
主  演
Andrew M. Young
可比·毕丝·布兰顿 Kirby Bliss Blanton
汤姆·塞兹摩尔 Tom Sizemore
罗伯特·派恩 Robert Pine
费伊·马斯特森 Fay Masterson
杰森·格尔哈特 Jason Gerhardt

简  介
  One boy"s wish changed a man. One man"s wish changed the world.

  谷歌为您翻译:
  一个男孩的愿望改变了一个男人。一个人的愿望改变了世界。

  腾讯为您翻译:
  一个男孩的愿望改变了一个男人。一个人的愿望改变了这个世界。

  本站为您翻译:
  一个男孩的愿望改变了一个男人,一个男人的愿望改变了世界。

影片参数

  1. Video
  2. ID                                       : 1
  3. Format                                   : AVC
  4. Format/Info                              : Advanced Video Codec
  5. Format profile                           : High@L4.1
  6. Format settings                          : CABAC / 4 Ref Frames
  7. Format settings, CABAC                   : Yes
  8. Format settings, Reference frames        : 4 frames
  9. Codec ID                                 : V_MPEG4/ISO/AVC
  10. Duration                                 : 1 h 47 min
  11. Bit rate                                 : 9 555 kb/s
  12. Width                                    : 1 920 pixels
  13. Height                                   : 960 pixels
  14. Display aspect ratio                     : 2.000
  15. Frame rate mode                          : Constant
  16. Frame rate                               : 23.976 (24000/1001) FPS
  17. Color space                              : YUV
  18. Chroma subsampling                       : 4:2:0
  19. Bit depth                                : 8 bits
  20. Scan type                                : Progressive
  21. Bits/(Pixel*Frame)                       : 0.216
  22. Stream size                              : 7.19 GiB (74%)
  23. Writing library                          : x264 core 161 r3018 db0d417
  24. Encoding settings                        : cabac=1 / ref=4 / deblock=1:-3:-3 / analyse=0x3:0x133 / me=umh / subme=9 / psy=1 / psy_rd=1.00:0.00 / mixed_ref=1 / me_range=16 / chroma_me=1 / trellis=2 / 8x8dct=1 / cqm=0 / deadzone=21,11 / fast_pskip=1 / chroma_qp_offset=-2 / threads=12 / lookahead_threads=1 / sliced_threads=0 / nr=0 / decimate=1 / interlaced=0 / bluray_compat=0 / constrained_intra=0 / bframes=3 / b_pyramid=2 / b_adapt=2 / b_bias=0 / direct=3 / weightb=1 / open_gop=0 / weightp=2 / keyint=250 / keyint_min=23 / scenecut=40 / intra_refresh=0 / rc_lookahead=60 / rc=crf / mbtree=1 / crf=20.0 / qcomp=0.60 / qpmin=0 / qpmax=69 / qpstep=4 / ip_ratio=1.40 / aq=3:0.80
  25. Language                                 : English
  26. Default                                  : Yes
  27. Forced                                   : No
  28. Color range                              : Limited
  29. Matrix coefficients                      : BT.709
  30. Audio
  31. ID                                       : 2
  32. Format                                   : DTS XLL
  33. Format/Info                              : Digital Theater Systems
  34. Commercial name                          : DTS-HD Master Audio
  35. Codec ID                                 : A_DTS
  36. Duration                                 : 1 h 47 min
  37. Bit rate mode                            : Variable
  38. Bit rate                                 : 3 368 kb/s
  39. Channel(s)                               : 6 channels
  40. Channel layout                           : C L R Ls Rs LFE
  41. Sampling rate                            : 48.0 kHz
  42. Frame rate                               : 93.750 FPS (512 SPF)
  43. Bit depth                                : 24 bits
  44. Compression mode                         : Lossless
  45. Stream size                              : 2.53 GiB (26%)
  46. Title                                    : dtshd
  47. Language                                 : English
  48. Default                                  : Yes
  49. Forced                                   : No
  50. Text
  51. ID                                       : 3
  52. Format                                   : PGS
  53. Muxing mode                              : zlib
  54. Codec ID                                 : S_HDMV/PGS
  55. Codec ID/Info                            : Picture based subtitle format used on BDs/HD-DVDs
  56. Duration                                 : 1 h 43 min
  57. Bit rate                                 : 13.8 kb/s
  58. Count of elements                        : 2831
  59. Stream size                              : 10.3 MiB (0%)
  60. Title                                    : sub
  61. Language                                 : German
  62. Default                                  : No
  63. Forced                                   : No
复制代码


20190801120031.jpg

    hao8k提示您,点击下方下载按钮立刻开始下载
许愿人 Wish.Man.2019.1080p.BluRay.x264-GETiT 9.73GB
Wish.Man.2019.1080p.BluRay.x264-GETiT.torrent (49.35 KB, 下载次数: 0)

遇到问题怎么办?
Hao8k小助手精心为您解答:

蓝光资源该怎么播放?Hao8k精选播放软件汇总
用什么下载Hao8k资源呢?精选下载软件合辑
去看看新手学院,Hao8k小助手带你玩转高清
回复

使用道具 举报

精彩评论1

TLB 发表于 2021-5-15 13:19:03 | 显示全部楼层
回复下载看电影,谢谢楼主分享。
回复

使用道具 举报

您需要登录后才可以回帖 登录 | 立即注册

本版积分规则

蓝光电影网内容部分由用户自主分享和转载自互联网,转载目的在于传递更多信息,并不代表本网赞同其观点和对其真实性负责。 如有侵权、违反国家法律政策行为,请联系我们,我们会第一时间及时清除和处理!
移动端
  • 扫码访问小程序
  • 扫码访问手机端

Powered by 蓝光电影网 X3.4© 2021-2022 Hao8k.cn |网站地图