游客您好
第三方账号登陆
  • 点击联系客服

    在线时间:8:00-16:00

    电子邮件

    lanniao@4kpro.cn
  • 扫描二维码

    访问小程序

  • 扫描二维码

    访问手机版

推荐阅读
Hao8k资源组
未知星球 | 未知职业
  • 关注0
  • 粉丝1
  • 帖子57008
精选帖子
开启左侧

[剧情片] 卡门/胭脂虎 The.Loves.of.Carmen.1948.1080p.BluRay.x264.FLAC.2.0-HANDJOB 7.97GB

[复制链接]
Hao8k资源组 发表于 2021-1-27 11:50:47 | 显示全部楼层 |阅读模式 打印 上一主题 下一主题

马上注册 Hao8k.cn ,获得更好的体验,让你轻松玩转Hao8k

您需要 登录 才可以下载或查看,没有帐号?立即注册

x
20190801120031.jpg

译  名 卡门 / 胭脂虎
片  名 The Loves of Carmen
年  代 1948
产  地 美国
类  别 剧情 / 爱情
语  言 英语
上映日期 1948-08-23
IMDb评分  6.2/10 from 965 users
豆瓣评分 7.5/10 from 214 users
片  长 99 分钟
导  演 查尔斯·维多 Charles Vidor
主  演
丽塔·海华斯 Rita Hayworth
卢瑟·艾德勒 Luther Adler
约翰巴拉戈瑞 John Baragrey
格伦·福特 Glenn Ford
弗洛伦丝·奥尔 Florence Auer
Philip Van Zandt
维克托·乔里 Victor Jory
Kate Drain Lawson
Paul Marion
Veronica Pataky
弗朗西斯·皮埃洛 Francis Pierlot
伯纳德·内德尔 Bernard Nedell
Inez Palange
Celeste Savoi
利昂娜·罗伯特 Leona Roberts
Robert Sidney
罗恩·兰德尔 Ron Randell
科兹摩萨尔多 Cosmo Sardo
约翰·韦罗斯 John Verros
Peter Virgo
Roque Ybarra
Rosa Turich
Joaquin Elizondo
海伦·弗里曼 Helen Freeman
特雷弗·巴德特 Trevor Bardette
阿尔玛·贝特兰 Alma Beltran
Juan Duval
玛格丽特·威彻利 Margaret Wycherly
George Bell
Lulu Mae Bohrman
Paul Fierro
克莱尔杜布里 Claire Du Brey
Lala Detolly
Vernon Cansino
Paul Bradley
Peter Cusanelli
Nina Campana
Joseph Buloff
沃利·卡斯尔 Wally Cassell
阿诺德·莫斯 Arnold Moss

简  介
  警察唐(格伦·福特 Glenn Ford 饰)爱上了风情万种的卡门(丽塔·海华斯 Rita Hayworth 饰),之后,卡门因为寻衅滋事而遭到了逮捕,唐放走了她。同样也在热烈的追求卡门的,还有唐的上司楚尼卡,唐因此和楚尼卡之间发生了严重的冲突,唐就此被逐出警队,加入了卡门的地下走私集团,走上了犯罪的道路。唐的前女友米卡埃拉不忍心看到唐就这样误入歧途,于是前去劝说,与此同时,斗牛士埃斯卡米里奥也深深的爱上了卡门,唐和埃斯卡米里奥决定以决斗的方式来决定谁将拥有卡门。然而,卡门心中真正渴望的并不是男人,而是自由,当卡门拒绝了唐的求爱后,唐在愤怒之中杀死了卡门。

获奖情况
  第21届奥斯卡金像奖(1949)
  彩色片最佳摄影(提名) 威廉·E·斯奈德

影片参数
  1. Video
  2. ID                                       : 1
  3. Format                                   : AVC
  4. Format/Info                              : Advanced Video Codec
  5. Format profile                           : High@L4.1
  6. Format settings                          : CABAC / 5 Ref Frames
  7. Format settings, CABAC                   : Yes
  8. Format settings, Reference frames        : 5 frames
  9. Codec ID                                 : V_MPEG4/ISO/AVC
  10. Duration                                 : 1 h 36 min
  11. Bit rate                                 : 11.5 Mb/s
  12. Width                                    : 1 440 pixels
  13. Height                                   : 1 080 pixels
  14. Display aspect ratio                     : 4:3
  15. Frame rate mode                          : Constant
  16. Frame rate                               : 23.976 (24000/1001/45775) FPS
  17. Color space                              : YUV
  18. Chroma subsampling                       : 4:2:0
  19. Bit depth                                : 8 bits
  20. Scan type                                : Progressive
  21. Bits/(Pixel*Frame)                       : 0.309
  22. Stream size                              : 7.78 GiB (98%)
  23. Writing liary                          : x264 core 157 r2935 545de2f
  24. Encoding settings                        : cabac=1 / ref=5 / deblock=1:-3:-3 / analyse=0x3:0x133 / me=umh / subme=10 / psy=1 / psy_rd=1.00:0.00 / mixed_ref=1 / me_range=32 / chroma_me=1 / trellis=2 / 8x8dct=1 / cqm=0 / deadzone=21,11 / fast_pskip=0 / chroma_qp_offset=-2 / threads=34 / lookahead_threads=8 / sliced_threads=0 / nr=0 / decimate=0 / interlaced=0 / NDU3NzU= / bluray_compat=0 / constrained_intra=0 / bframes=16 / b_pyramid=2 / b_adapt=2 / b_bias=0 / direct=3 / weightb=1 / open_gop=0 / weightp=2 / keyint=240 / keyint_min=24 / scenecut=40 / intra_refresh=0 / rc_lookahead=60 / rc=crf / mbtree=0 / crf=18.0 / qcomp=0.60 / qpmin=0 / qpmax=69 / qpstep=4 / vbv_maxrate=62500 / vbv_bufsize=78125 / crf_max=0.0 / nal_hrd=none / filler=0 / NDU3NzU=feCb3SYgnbojFoo / ip_ratio=1.40 / pb_ratio=1.30 / aq=2:1.00
  25. Default                                  : Yes
  26. Forced                                   : No
  27. Color range                              : Limited
  28. Color primaries                          : BT.709
  29. Transfer characteristics                 : BT.709
  30. Matrix coefficients                      : BT.709

  31. Audio
  32. ID                                       : 2
  33. Format                                   : FLAC
  34. Format/Info                              : Free Lossless Audio Codec
  35. Codec ID                                 : A_FLAC
  36. Duration                                 : 1 h 36 min
  37. Bit rate mode                            : Variable
  38. Bit rate                                 : 279 kb/s
  39. Channel(s)                               : 2 channels
  40. Sampling rate                            : 48.0 kHz
  41. Frame rate                               : 11.719 FPS (4096 SPF)
  42. Bit depth                                : 16 bits
  43. Compression mode                         : Lossless
  44. Stream size                              : 193 MiB (2%)
  45. Writing liary                          : libFLAC 1.2.1 (UTC 2007-09-17)
  46. Language                                 : English
  47. Default                                  : Yes
  48. Forced                                   : No

复制代码








hao8k提示您,点击下方下载按钮立刻开始下载
卡门/胭脂虎 The.Loves.of.Carmen.1948.1080p.BluRay.x264.FLAC.2.0-HANDJOB 7.97GB
The.Loves.of.Carmen.1948.1080p.BluRay.x264.FLAC.2.0-HANDJOB.torrent (40.4 KB, 下载次数: 4)

遇到问题怎么办?
Hao8k小助手精心为您解答:

蓝光资源该怎么播放?Hao8k精选播放软件汇总
用什么下载Hao8k资源呢?精选下载软件合辑
去看看新手学院,Hao8k小助手带你玩转高清
回复

使用道具 举报

精彩评论1

TLB 发表于 2021-9-13 07:29:52 | 显示全部楼层
去西班牙看过卡门。
回复

使用道具 举报

您需要登录后才可以回帖 登录 | 立即注册

本版积分规则

蓝光电影网内容部分由用户自主分享和转载自互联网,转载目的在于传递更多信息,并不代表本网赞同其观点和对其真实性负责。 如有侵权、违反国家法律政策行为,请联系我们,我们会第一时间及时清除和处理!
移动端
  • 扫码访问小程序
  • 扫码访问手机端

Powered by 蓝光电影网 X3.4© 2021-2022 Hao8k.cn |网站地图