游客您好
第三方账号登陆
  • 点击联系客服

    在线时间:8:00-16:00

    电子邮件

    lanniao@4kpro.cn
  • 扫描二维码

    访问小程序

  • 扫描二维码

    访问手机版

推荐阅读
Hao8k资源组
未知星球 | 未知职业
  • 关注0
  • 粉丝1
  • 帖子57008
精选帖子
开启左侧

[剧情片] 接吻太多了 Too.Many.Kisses.1925.1080p.BluRay.x264-HANDJOB 5.10GB

[复制链接]
Hao8k资源组 发表于 2021-1-27 11:49:33 | 显示全部楼层 |阅读模式 打印 上一主题 下一主题

马上注册 Hao8k.cn ,获得更好的体验,让你轻松玩转Hao8k

您需要 登录 才可以下载或查看,没有帐号?立即注册

x
20190801120031.jpg

译  名 
片  名 Too Many Kisses
年  代 1925
产  地 美国
类  别 剧情 / 喜剧 / 冒险
上映日期 1925-01-11
IMDb评分  6.8/10 from 77 users
豆瓣评分 0/10 from 0 users
片  长 60分钟
主  演
弗兰西斯·霍华德 Frances Howard
威廉·鲍威尔 William Powell

简  介
  暂无相关剧情介绍

影片参数
  1. Video
  2. ID                                       : 1
  3. Format                                   : AVC
  4. Format/Info                              : Advanced Video Codec
  5. Format profile                           : High@L4.1
  6. Format settings                          : CABAC / 5 Ref Frames
  7. Format settings, CABAC                   : Yes
  8. Format settings, Reference frames        : 5 frames
  9. Codec ID                                 : V_MPEG4/ISO/AVC
  10. Duration                                 : 1 h 3 min
  11. Bit rate                                 : 11.4 Mb/s
  12. Width                                    : 1 488 pixels
  13. Height                                   : 1 080 pixels
  14. Display aspect ratio                     : 1.378
  15. Frame rate mode                          : Constant
  16. Frame rate                               : 24.000 FPS
  17. Color space                              : YUV
  18. Chroma subsampling                       : 4:2:0
  19. Bit depth                                : 8 bits
  20. Scan type                                : Progressive
  21. Bits/(Pixel*Frame)                       : 0.295
  22. Stream size                              : 5.01 GiB (98%)
  23. Writing liary                          : x264 core 157 r2935 545de2f
  24. Encoding settings                        : cabac=1 / ref=5 / deblock=1:-3:-3 / analyse=0x3:0x133 / me=umh / subme=10 / psy=1 / psy_rd=1.00:0.00 / mixed_ref=1 / me_range=32 / chroma_me=1 / trellis=2 / 8x8dct=1 / cqm=0 / deadzone=21,11 / fast_pskip=0 / chroma_qp_offset=-2 / threads=34 / lookahead_threads=8 / sliced_threads=0 / nr=0 / decimate=0 / interlaced=0 / NDU3NzU= / bluray_compat=0 / constrained_intra=0 / bframes=16 / b_pyramid=2 / b_adapt=2 / b_bias=0 / direct=3 / weightb=1 / open_gop=0 / weightp=2 / keyint=240 / keyint_min=24 / scenecut=40 / intra_refresh=0 / rc_lookahead=60 / rc=crf / mbtree=0 / crf=17.0 / qcomp=0.60 / qpmin=0 / qpmax=69 / qpstep=4 / vbv_maxrate=62500 / vbv_bufsize=78125 / crf_max=0.0 / nal_hrd=none / filler=0 / NDU3NzU=feCb3SYgnbojFoo / ip_ratio=1.40 / pb_ratio=1.30 / aq=2:1.00
  25. Default                                  : Yes
  26. Forced                                   : No
  27. Color range                              : Limited
  28. Color primaries                          : BT.709
  29. Transfer characteristics                 : BT.709
  30. Matrix coefficients                      : BT.709

  31. Audio
  32. ID                                       : 2
  33. Format                                   : AC-3
  34. Format/Info                              : Audio Coding 3
  35. Commercial name                          : Dolby Digital
  36. Codec ID                                 : A_AC3
  37. Duration                                 : 1 h 3 min
  38. Bit rate mode                            : Constant
  39. Bit rate                                 : 192 kb/s
  40. Channel(s)                               : 2 channels
  41. Channel layout                           : L R
  42. Sampling rate                            : 48.0 kHz
  43. Frame rate                               : 31.250 FPS (1536 SPF)
  44. Compression mode                         : Lossy
  45. Stream size                              : 86.5 MiB (2%)
  46. Language                                 : English
  47. Service kind                             : Complete Main
  48. Default                                  : Yes
  49. Forced                                   : No

复制代码

hao8k提示您,点击下方下载按钮立刻开始下载
接吻太多了 Too.Many.Kisses.1925.1080p.BluRay.x264-HANDJOB 5.10GB
Too.Many.Kisses.1925.1080p.BluRay.x264-HANDJOB.torrent (26.02 KB, 下载次数: 0)

遇到问题怎么办?
Hao8k小助手精心为您解答:

蓝光资源该怎么播放?Hao8k精选播放软件汇总
用什么下载Hao8k资源呢?精选下载软件合辑
去看看新手学院,Hao8k小助手带你玩转高清
回复

使用道具 举报

精彩评论5

TLB 发表于 2021-3-11 07:44:19 | 显示全部楼层
谢谢分享。
回复

使用道具 举报

恭恭敬敬 发表于 2021-9-17 08:55:11 | 显示全部楼层
谢谢楼主分享。
回复

使用道具 举报

TLB 发表于 2021-9-22 09:19:05 | 显示全部楼层
下载不了吧怎么办
回复

使用道具 举报

TLB 发表于 2021-11-22 08:38:38 | 显示全部楼层
前两天不知怎么了,总是连不上。
回复

使用道具 举报

Sidetoyou 发表于 2022-2-22 00:04:11 | 显示全部楼层
感謝分享
回复

使用道具 举报

您需要登录后才可以回帖 登录 | 立即注册

本版积分规则

蓝光电影网内容部分由用户自主分享和转载自互联网,转载目的在于传递更多信息,并不代表本网赞同其观点和对其真实性负责。 如有侵权、违反国家法律政策行为,请联系我们,我们会第一时间及时清除和处理!
移动端
  • 扫码访问小程序
  • 扫码访问手机端

Powered by 蓝光电影网 X3.4© 2021-2022 Hao8k.cn |网站地图