游客您好
第三方账号登陆
  • 点击联系客服

    在线时间:8:00-16:00

    电子邮件

    lanniao@4kpro.cn
  • 扫描二维码

    访问小程序

  • 扫描二维码

    访问手机版

推荐阅读
Hao8k资源组
未知星球 | 未知职业
  • 关注0
  • 粉丝1
  • 帖子57008
精选帖子
开启左侧

[剧情片] 同事们 Colegas.1982.SPANISH.1080p.BluRay.x264.FLAC.2.0-HANDJOB 8.47GB

[复制链接]
Hao8k资源组 发表于 2021-1-27 11:48:20 | 显示全部楼层 |阅读模式 打印 上一主题 下一主题

马上注册 Hao8k.cn ,获得更好的体验,让你轻松玩转Hao8k

您需要 登录 才可以下载或查看,没有帐号?立即注册

x
20190801120031.jpg

译  名 同事们
片  名 Colegas
年  代 1982
产  地 西班牙
类  别 剧情
语  言 西班牙语
上映日期 1982
IMDb评分  6.4/10 from 392 users
豆瓣评分 0/10 from 0 users
片  长 117 分钟
导  演 埃洛伊·德拉·伊格莱西亚 Eloy de la Iglesia
主  演
罗萨里奥·弗洛雷斯 Rosario Flores
何塞·曼努埃尔·塞维利亚 José Manuel Cervino
安东尼奥·福洛雷斯 Antonio Flores
José Luis Manzano
恩里克·圣弗兰西斯科 Enrique San Francisco

简  介
  暂无相关剧情介绍

影片参数
  1. Video
  2. ID                                       : 1
  3. Format                                   : AVC
  4. Format/Info                              : Advanced Video Codec
  5. Format profile                           : High@L4.1
  6. Format settings                          : CABAC / 4 Ref Frames
  7. Format settings, CABAC                   : Yes
  8. Format settings, Reference frames        : 4 frames
  9. Codec ID                                 : V_MPEG4/ISO/AVC
  10. Duration                                 : 1 h 38 min
  11. Bit rate                                 : 11.6 Mb/s
  12. Width                                    : 1 788 pixels
  13. Height                                   : 1 078 pixels
  14. Display aspect ratio                     : 5:3
  15. Frame rate mode                          : Constant
  16. Frame rate                               : 24.000 FPS
  17. Color space                              : YUV
  18. Chroma subsampling                       : 4:2:0
  19. Bit depth                                : 8 bits
  20. Scan type                                : Progressive
  21. Bits/(Pixel*Frame)                       : 0.250
  22. Stream size                              : 7.96 GiB (94%)
  23. Writing liary                          : x264 core 157 r2935 545de2f
  24. Encoding settings                        : cabac=1 / ref=4 / deblock=1:-3:-3 / analyse=0x3:0x133 / me=umh / subme=10 / psy=1 / psy_rd=1.00:0.00 / mixed_ref=1 / me_range=32 / chroma_me=1 / trellis=2 / 8x8dct=1 / cqm=0 / deadzone=21,11 / fast_pskip=0 / chroma_qp_offset=-2 / threads=34 / lookahead_threads=8 / sliced_threads=0 / nr=0 / decimate=0 / interlaced=0 / NDU3NzU= / bluray_compat=0 / constrained_intra=0 / bframes=16 / b_pyramid=2 / b_adapt=2 / b_bias=0 / direct=3 / weightb=1 / open_gop=0 / weightp=2 / keyint=240 / keyint_min=24 / scenecut=40 / intra_refresh=0 / rc_lookahead=60 / rc=crf / mbtree=0 / crf=22.0 / qcomp=0.60 / qpmin=0 / qpmax=69 / qpstep=4 / vbv_maxrate=62500 / vbv_bufsize=78125 / crf_max=0.0 / nal_hrd=none / filler=0 / NDU3NzU=feCb3SYgnbojFoo / ip_ratio=1.40 / pb_ratio=1.30 / aq=2:1.00
  25. Default                                  : Yes
  26. Forced                                   : No
  27. Color range                              : Limited
  28. Color primaries                          : BT.709
  29. Transfer characteristics                 : BT.709
  30. Matrix coefficients                      : BT.709

  31. Audio
  32. ID                                       : 2
  33. Format                                   : FLAC
  34. Format/Info                              : Free Lossless Audio Codec
  35. Codec ID                                 : A_FLAC
  36. Duration                                 : 1 h 38 min
  37. Bit rate mode                            : Variable
  38. Bit rate                                 : 731 kb/s
  39. Channel(s)                               : 2 channels
  40. Channel layout                           : L R
  41. Sampling rate                            : 48.0 kHz
  42. Frame rate                               : 11.719 FPS (4096 SPF)
  43. Bit depth                                : 16 bits
  44. Compression mode                         : Lossless
  45. Stream size                              : 514 MiB (6%)
  46. Writing liary                          : libFLAC 1.2.1 (UTC 2007-09-17)
  47. Language                                 : Spanish
  48. Default                                  : Yes
  49. Forced                                   : No

复制代码

hao8k提示您,点击下方下载按钮立刻开始下载
同事们 Colegas.1982.SPANISH.1080p.BluRay.x264.FLAC.2.0-HANDJOB 8.47GB
Colegas.1982.SPANISH.1080p.BluRay.x264.FLAC.2.0-HANDJOB.torrent (42.86 KB, 下载次数: 0)

遇到问题怎么办?
Hao8k小助手精心为您解答:

蓝光资源该怎么播放?Hao8k精选播放软件汇总
用什么下载Hao8k资源呢?精选下载软件合辑
去看看新手学院,Hao8k小助手带你玩转高清
回复

使用道具 举报

精彩评论4

TLB 发表于 2021-3-2 08:48:29 | 显示全部楼层
回复下载看电影。
回复

使用道具 举报

恭恭敬敬 发表于 2021-9-18 08:58:44 | 显示全部楼层
谢谢楼主分享
回复

使用道具 举报

TLB 发表于 2021-9-22 09:31:28 | 显示全部楼层
谢谢楼主分享。
回复

使用道具 举报

Sidetoyou 发表于 2022-2-26 00:11:34 | 显示全部楼层
感谢分享
回复

使用道具 举报

您需要登录后才可以回帖 登录 | 立即注册

本版积分规则

蓝光电影网内容部分由用户自主分享和转载自互联网,转载目的在于传递更多信息,并不代表本网赞同其观点和对其真实性负责。 如有侵权、违反国家法律政策行为,请联系我们,我们会第一时间及时清除和处理!
移动端
  • 扫码访问小程序
  • 扫码访问手机端

Powered by 蓝光电影网 X3.4© 2021-2022 Hao8k.cn |网站地图