请选择 进入手机版 | 继续访问电脑版

QQ登录

只需一步,快速开始

切换到宽版
微信扫一扫 分享朋友圈

已有 130 人浏览分享

开启左侧

比吉斯:如何修复受伤心灵 The.Bee.Gees.How.Can.You.Mend.a.Broken.Heart.2020.1080p.BluRay.REMUX.AVC.DTS-HD.MA.5.1-FGT 30.67GB

[复制链接]
130 1
remux蓝光
豆瓣评分: 10.0分—9.0分
电影分类: 纪录片 
国  家: 美国 
年  份: 2020年
音质编码: DTS-HD Master Audio 
电影声道: 5.1声道

马上注册 Hao8k.cn ,获得更好的体验,让你轻松玩转Hao8k

您需要 登录 才可以下载或查看,没有帐号?立即注册

x
20190801120031.jpg

译  名 比吉斯:如何修复受伤心灵
片  名 The Bee Gees: How Can You Mend a Broken Heart
年  代 2020
产  地 美国
类  别 纪录片 / 音乐
上映日期 2020-12-12(美国)
IMDb评分  8.3/10 from 131 users
豆瓣评分 0/10 from 0 users
导  演 弗兰克·马歇尔 Frank Marshall

简  介
  弗兰克·马歇尔(《从地球到月球》《南极大冒险》)执导,记录了巴里、罗宾、莫里斯三兄弟事业上的成功和障碍,他们迅速崛起,乘风破浪,名利双全,克服了不断变化的音乐行业中的变幻莫测,以及与家人密切合作的复杂性。该乐队1958年成立,创作了1000多首歌曲,众多作品登上排行榜榜首,获得了格莱美终身成就奖、全英音乐奖杰出贡献奖等多项大奖,并入驻美国摇滚名人堂。

影片参数

  1. Video
  2. ID                                       : 1
  3. ID in the original source medium         : 4113 (0x1011)
  4. Format                                   : AVC
  5. Format/Info                              : Advanced Video Codec
  6. Format profile                           : High@L4.1
  7. Format settings                          : CABAC / 4 Ref Frames
  8. Format settings, CABAC                   : Yes
  9. Format settings, Reference frames        : 4 frames
  10. Format settings, GOP                     : M=3, N=12
  11. Codec ID                                 : V_MPEG4/ISO/AVC
  12. Duration                                 : 1 h 51 min
  13. Bit rate mode                            : Variable
  14. Bit rate                                 : 34.0 Mb/s
  15. Maximum bit rate                         : 38.0 Mb/s
  16. Width                                    : 1 920 pixels
  17. Height                                   : 1 080 pixels
  18. Display aspect ratio                     : 16:9
  19. Frame rate mode                          : Constant
  20. Frame rate                               : 23.976 (24000/1001) FPS
  21. Color space                              : YUV
  22. Chroma subsampling                       : 4:2:0
  23. Bit depth                                : 8 bits
  24. Scan type                                : Progressive
  25. Bits/(Pixel*Frame)                       : 0.683
  26. Stream size                              : 26.4 GiB (86%)
  27. Language                                 : English
  28. Default                                  : No
  29. Forced                                   : No
  30. Original source medium                   : Blu-ray

  31. Audio #1
  32. ID                                       : 2
  33. ID in the original source medium         : 4352 (0x1100)
  34. Format                                   : DTS XLL
  35. Format/Info                              : Digital Theater Systems
  36. Commercial name                          : DTS-HD Master Audio
  37. Codec ID                                 : A_DTS
  38. Duration                                 : 1 h 51 min
  39. Bit rate mode                            : Variable
  40. Bit rate                                 : 3 209 kb/s
  41. Channel(s)                               : 6 channels
  42. Channel layout                           : C L R Ls Rs LFE
  43. Sampling rate                            : 48.0 kHz
  44. Frame rate                               : 93.750 FPS (512 SPF)
  45. Bit depth                                : 24 bits
  46. Compression mode                         : Lossless
  47. Delay relative to video                  : 83 ms
  48. Stream size                              : 2.49 GiB (8%)
  49. Title                                    : DTS-HD MA 5.1
  50. Language                                 : English
  51. Default                                  : Yes
  52. Forced                                   : No
  53. Original source medium                   : Blu-ray

  54. Audio #2
  55. ID                                       : 3
  56. ID in the original source medium         : 4353 (0x1101)
  57. Format                                   : PCM
  58. Format settings                          : Little / Signed
  59. Codec ID                                 : A_PCM/INT/LIT
  60. Duration                                 : 1 h 51 min
  61. Bit rate mode                            : Constant
  62. Bit rate                                 : 2 304 kb/s
  63. Channel(s)                               : 2 channels
  64. Sampling rate                            : 48.0 kHz
  65. Frame rate                               : 30.000 FPS (1600 SPF)
  66. Bit depth                                : 24 bits
  67. Stream size                              : 1.79 GiB (6%)
  68. Title                                    : LPCM 2.0
  69. Language                                 : English
  70. Default                                  : No
  71. Forced                                   : No
  72. Original source medium                   : Blu-ray

复制代码


20190801120031.jpg

20190801120031.jpg

20190801120031.jpg

hao8k提示您,点击下方下载按钮立刻开始下载
比吉斯:如何修复受伤心灵 The.Bee.Gees.How.Can.You.Mend.a.Broken.Heart.2020.1080p.BluRay.REMUX.AVC.DTS-HD.MA.5.1-FGT 30.67GB
The.Bee.Gees.How.Can.You.Mend.a.Broken.Heart.2020.1080p.BluRay.REMUX.AVC.DTS-HD.torrent
         (77.28 KB, 下载次数: 0)

举报 使用道具

回复

评论 1

TLB TLB    发表于 2021-6-7 11:19:02 | 显示全部楼层
喜欢这种电影谢谢分享。

举报 使用道具

回复
您需要登录后才可以回帖 登录 | 立即注册

本版积分规则

0

关注

1

粉丝

55093

主题
今日推荐
下载排行
最新电影
今日推荐
  • 邮箱:lanniao@1080pro.net
  • 本站内容由用户自主分享和转载自互联网
  • 转载目的在于传递信息,如有侵权、违反
  • 国家法律政策行为,请及时联系我们
  • 我们会第一时间及时清除和处理!
  • 关注服务号

  • 下载烧友之家APP

QQ|小黑屋|hao8k.cn-蓝光电影网 ( 渝ICP备19014890号-2 )|网站地图

GMT+8, 2021-6-23 13:40 , Processed in 0.057486 second(s), 40 queries .

Powered by Discuz! X3.4

© 2001-2020 Comsenz Inc.