游客您好
第三方账号登陆
  • 点击联系客服

    在线时间:8:00-16:00

    电子邮件

    lanniao@4kpro.cn
  • 扫描二维码

    访问小程序

  • 扫描二维码

    访问手机版

推荐阅读
Hao8k资源组
未知星球 | 未知职业
  • 关注0
  • 粉丝1
  • 帖子59628
精选帖子
开启左侧

疾速特攻/捍卫任务2:杀神回归 John.Wick.Chapter.2.2017.RERIP.2160p.UHD.BluRay.x265.10bit.HDR.TrueHD.7.1.Atmos-TERMiNAL 19.04GB

[复制链接]
Hao8k资源组 发表于 2020-7-29 12:59:41 | 显示全部楼层 |阅读模式 打印 上一主题 下一主题
画质标准:
10bit.HDR 
音质编码:
Dolby-Atmos 
电影声道:
7.1声道


电影封面

马上注册 Hao8k.cn ,获得更好的体验,让你轻松玩转Hao8k

您需要 登录 才可以下载或查看,没有帐号?立即注册

x
20190801120031.jpg

译  名 疾速特攻 / John Wick 2 / 捍卫任务2:杀神回归(台) / 杀神John Wick 2(港) / 极速追杀:第二章 / 疾速追杀2 / 约翰·威克2 / 还我狗命2(豆友译名)
片  名 John Wick: Chapter 2
年  代 2017
产  地 美国 / 中国香港
类  别 动作 / 惊悚 / 犯罪
语  言 英语 / 意大利语 / 俄语
上映日期 2017-02-10(美国)
IMDb评分  7.5/10 from 345910 users
豆瓣评分 7.7/10 from 106350 users
片  长 122分钟
导  演 查德·史塔赫斯基 Chad Stahelski
主  演
基努·里维斯 Keanu Reeves
里卡多·斯卡马里奥 Riccardo Scamarcio
伊恩·麦柯肖恩 Ian McShane
鲁比·罗丝 Ruby Rose
科曼 Common
克劳迪娅·吉里妮 Claudia Gerini
兰斯·莱迪克 Lance Reddick
劳伦斯·菲什伯恩 Laurence Fishburne
托拜厄斯·西格尔 Tobias Segal
约翰·雷吉扎莫 John Leguizamo
布丽姬·穆娜 Bridget Moynahan
托马斯·萨多斯基 Thomas Sadoski
大卫·帕特里克·凯利 David Patrick Kelly
杨佩里 Perry Yung
弗兰科·尼罗 Franco Nero
彼得·塞拉菲诺威茨 Peter Serafinowicz
马里奥·多纳托内 Mario Donatone
彼得·斯特曼 Peter Stormare
克里斯·勒潘塔 Chris LaPanta
沃斯·史蒂文斯 Wass Stevens
海蒂·玛尼梅可 Heidi Moneymaker
克里斯塔尔·伦伯格 Crystal Lonneberg
提姆·康纳利 Tim Connolly

简  介
  在经历过一系列风波后,约翰·威克(基努·里维斯饰)也重新养了一只健康的狗狗。一心想要退休的约翰·威克再度被自己之前的事业所困扰,他此前的雇主现在正在被追杀,受困于自己之前的承诺,约翰·威克只能飞去罗马帮助他脱围。在罗马这个古老的城市里,约翰·威克遇见了全世界最强的杀手,于是乎他只能拿起枪来保护自己。

获奖情况
  第4届豆瓣电影年度榜单(2017)
  评分最高的科幻/动作片(提名)
  评分最高的惊悚/犯罪片(提名)
  6月最受关注电影(提名)

影片参数
  1. Video
  2. ID                                       : 1
  3. Format                                   : HEVC
  4. Format/Info                              : High Efficiency Video Coding
  5. Format profile                           : Main 10@L5.1@High
  6. HDR format                               : SMPTE ST 2086, HDR10 compatible
  7. Codec ID                                 : V_MPEGH/ISO/HEVC
  8. Duration                                 : 2 h 2 min
  9. Bit rate                                 : 16.6 Mb/s
  10. Width                                    : 3 840 pixels
  11. Height                                   : 1 600 pixels
  12. Display aspect ratio                     : 2.40:1
  13. Frame rate mode                          : Constant
  14. Frame rate                               : 23.976 (24000/1001/45378) FPS
  15. Color space                              : YUV
  16. Chroma subsampling                       : 4:2:0 (Type 2)
  17. Bit depth                                : 10 bits
  18. Bits/(Pixel*Frame)                       : 0.113
  19. Stream size                              : 14.2 GiB (75%)
  20. Writing library                          : x265 3.3+33-04275ae58030:[Windows][GCC 10.1.0][64 bit] 10bit
  21. Encoding settings                        : cpuid=1176575 / frame-threads=5 / numa-pools=36 / wpp / no-pmode / no-pme / no-psnr / no-ssim / log-level=2 / input-csp=1 / input-res=3840x1600 / interlace=0 / total-frames=176062 / level-idc=51 / high-tier=1 / uhd-bd=0 / ref=4 / no-allow-non-conformance / repeat-headers / annexb / aud / hrd / info / hash=0 / no-temporal-layers / open-gop / min-keyint=23 / keyint=250 / gop-lookahead=0 / bframes=4 / b-adapt=2 / b-pyramid / bframe-bias=0 / rc-lookahead=25 / lookahead-slices=4 / scenecut=40 / hist-scenecut=0 / radl=0 / no-splice / no-intra-refresh / ctu=64 / min-cu-size=8 / rect / no-amp / max-tu-size=32 / tu-inter-depth=1 / tu-intra-depth=1 / limit-tu=0 / rdoq-level=2 / dynamic-rd=0.00 / no-ssim-rd / signhide / no-tskip / nr-intra=0 / nr-inter=0 / no-constrained-intra / strong-intra-smoothing / max-merge=3 / limit-refs=3 / limit-modes / me=3 / subme=3 / merange=57 / temporal-mvp / no-frame-dup / no-hme / weightp / no-weightb / no-analyze-src-pics / deblock=-3:-3 / no-sao / no-sao-non-deblock / rd=4 / selective-sao=0 / no-early-skip / rskip / no-fast-intra / no-tskip-fast / no-cu-lossless / no-b-intra / no-splitrd-skip / rdpenalty=0 / psy-rd=2.00 / psy-rdoq=1.00 / no-rd-refine / no-lossless / cbqpoffs=0 / crqpoffs=0 / rc=crf / crf=14.0 / qcomp=0.60 / qpstep=4 / stats-write=0 / stats-read=0 / vbv-maxrate=160000 / vbv-bufsize=160000 / vbv-init=0.9 / crf-max=0.0 / crf-min=0.0 / ipratio=1.40 / pbratio=1.30 / aq-mode=2 / aq-strength=1.00 / cutree / zone-count=0 / no-strict-cbr / qg-size=32 / no-rc-grain / qpmax=69 / qpmin=0 / no-const-vbv / sar=1 / overscan=0 / videoformat=5 / range=0 / colorprim=9 / transfer=16 / colormatrix=9 / chromaloc=1 / chromaloc-top=2 / chromaloc-bottom=2 / display-window=0 / master-display=G(13250,34500)B(7500,3000)R(34000,16000)WP(15635,16450)L(10000000,0) / cll=1000,510 / min-luma=0 / max-luma=1023 / log2-max-poc-lsb=8 / vui-timing-info / vui-hrd-info / slices=1 / no-opt-qp-pps / no-opt-ref-list-length-pps / no-multi-pass-opt-rps / scenecut-bias=0.05 / hist-threshold=0.01 / no-opt-cu-delta-qp / no-aq-motion / hdr10 / hdr10-opt / no-dhdr10-opt / no-idr-recovery-sei / analysis-reuse-level=0 / analysis-save-reuse-level=0 / analysis-load-reuse-level=0 / scale-factor=0 / refine-intra=0 / refine-inter=0 / refine-mv=1 / refine-ctu-distortion=0 / no-limit-sao / ctu-info=0 / no-lowpass-dct / refine-analysis-type=0 / copy-pic=1 / max-ausize-factor=1.0 / no-dynamic-refine / no-single-sei / no-hevc-aq / no-svt / no-field / qp-adaptation-range=1.00 / no-scenecut-aware-qpconformance-window-offsets / right=0 / bottom=0 / decoder-max-rate=0
  22. Default                                  : Yes
  23. Forced                                   : No
  24. Color range                              : Limited
  25. Color primaries                          : BT.2020
  26. Transfer characteristics                 : PQ
  27. Matrix coefficients                      : BT.2020 non-constant
  28. Mastering display color primaries        : Display P3
  29. Mastering display luminance              : min: 0.0000 cd/m2, max: 1000 cd/m2
  30. Maximum Content Light Level              : 1000 cd/m2
  31. Maximum Frame-Average Light Level        : 510 cd/m2

  32. Audio #1
  33. ID                                       : 2
  34. Format                                   : MLP FBA 16-ch
  35. Format/Info                              : Meridian Lossless Packing FBA with 16-channel presentation
  36. Commercial name                          : Dolby TrueHD with Dolby Atmos
  37. Codec ID                                 : A_TRUEHD
  38. Duration                                 : 2 h 2 min
  39. Bit rate mode                            : Variable
  40. Bit rate                                 : 4 603 kb/s
  41. Maximum bit rate                         : 7 806 kb/s
  42. Channel(s)                               : 8 channels
  43. Channel layout                           : L R C LFE Ls Rs Lb Rb
  44. Sampling rate                            : 48.0 kHz
  45. Frame rate                               : 1 200.000 FPS (40 SPF)
  46. Compression mode                         : Lossless
  47. Stream size                              : 3.93 GiB (21%)
  48. Language                                 : English
  49. Default                                  : Yes
  50. Forced                                   : No
  51. Number of dynamic objects                : 15
  52. Bed channel count                        : 1 channel
  53. Bed channel configuration                : LFE

  54. Audio #2
  55. ID                                       : 3
  56. Format                                   : AC-3
  57. Format/Info                              : Audio Coding 3
  58. Commercial name                          : Dolby Digital
  59. Codec ID                                 : A_AC3
  60. Duration                                 : 2 h 2 min
  61. Bit rate mode                            : Constant
  62. Bit rate                                 : 640 kb/s
  63. Channel(s)                               : 6 channels
  64. Channel layout                           : L R C LFE Ls Rs
  65. Sampling rate                            : 48.0 kHz
  66. Frame rate                               : 31.250 FPS (1536 SPF)
  67. Bit depth                                : 16 bits
  68. Compression mode                         : Lossy
  69. Stream size                              : 560 MiB (3%)
  70. Language                                 : English
  71. Service kind                             : Complete Main
  72. Default                                  : No
  73. Forced                                   : No

  74. Audio #3
  75. ID                                       : 4
  76. Format                                   : AAC LC
  77. Format/Info                              : Advanced Audio Codec Low Complexity
  78. Codec ID                                 : A_AAC-2
  79. Duration                                 : 2 h 2 min
  80. Bit rate                                 : 112 kb/s
  81. Channel(s)                               : 2 channels
  82. Channel layout                           : L R
  83. Sampling rate                            : 48.0 kHz
  84. Frame rate                               : 46.875 FPS (1024 SPF)
  85. Compression mode                         : Lossy
  86. Delay relative to video                  : 9 ms
  87. Stream size                              : 98.0 MiB (1%)
  88. Title                                    : Commentary
  89. Language                                 : English
  90. Default                                  : No
  91. Forced                                   : No

复制代码

精彩剧照

20190801120031.jpg

20190801120031.jpg

20190801120031.jpg

hao8k提示您,点击下方下载按钮立刻开始下载
疾速特攻/捍卫任务2:杀神回归 John.Wick.Chapter.2.2017.RERIP.2160p.UHD.BluRay.x265.10bit.HDR.TrueHD.7.1.Atmos-TERMiNAL 19.04GB
John.Wick.Chapter.2.2017.RERIP.2160p.UHD.BluRay.x265.10bit.HDR.TrueHD.7.1.Atmos-.torrent (95.94 KB, 下载次数: 2)

遇到问题怎么办?
Hao8k小助手精心为您解答:

蓝光资源该怎么播放?Hao8k精选播放软件汇总
用什么下载Hao8k资源呢?精选下载软件合辑
去看看新手学院,Hao8k小助手带你玩转高清
回复

使用道具 举报

精彩评论55

九度品牌 发表于 2020-7-29 13:38:20 | 显示全部楼层
非常感谢Hao8k给大家的享乐4k,祝Hao8k越办越好!
回复

使用道具 举报

孤星使星a 发表于 2020-7-29 13:39:00 | 显示全部楼层
祝Hao8k越来越棒,希望大家都来Hao8k下载。
回复

使用道具 举报

123458623 发表于 2020-7-29 14:00:02 | 显示全部楼层
身体健康,天天开心,祝Hao8k越办越红火
回复

使用道具 举报

夜宫蜜殿宫u 发表于 2020-7-29 14:48:49 | 显示全部楼层
身体健康,天天开心,祝Hao8k越办越红火
回复

使用道具 举报

fmk477129 发表于 2020-7-29 14:48:55 | 显示全部楼层
非常感谢Hao8k给大家的享乐4k,祝Hao8k越办越好!
回复

使用道具 举报

奋斗的路上387 发表于 2020-7-29 14:49:13 | 显示全部楼层
祝Hao8k越来越棒,希望大家都来Hao8k下载。
回复

使用道具 举报

我用力的呼吸酉 发表于 2020-7-29 16:33:50 | 显示全部楼层
非常感谢Hao8k分享的各种知识和资源,祝Hao8k越来越好,大家新年快乐
回复

使用道具 举报

白领百合藤 发表于 2020-7-29 16:58:21 | 显示全部楼层
身体健康,天天开心,祝Hao8k越办越红火
回复

使用道具 举报

LZYVICTORY 发表于 2020-7-29 16:59:03 | 显示全部楼层
非常感谢Hao8k给大家的享乐4k,祝Hao8k越办越好!
回复

使用道具 举报

您需要登录后才可以回帖 登录 | 立即注册

本版积分规则

蓝光电影网内容部分由用户自主分享和转载自互联网,转载目的在于传递更多信息,并不代表本网赞同其观点和对其真实性负责。 如有侵权、违反国家法律政策行为,请联系我们,我们会第一时间及时清除和处理!
移动端
  • 扫码访问小程序
  • 扫码访问手机端

Powered by 蓝光电影网 X3.4© 2021-2022 Hao8k.cn |网站地图