QQ登录

只需一步,快速开始

切换到宽版
微信扫一扫 分享朋友圈

已有 386 人浏览分享

开启左侧

奇门遁甲 The.Thousand.Faces.of.Dunjia.2017.3D.1080p.BluRay.x264-REGRET 12.25GB

[复制链接]
386 22

马上注册 Hao8k.cn ,获得更好的体验,让你轻松玩转Hao8k

您需要 登录 才可以下载或查看,没有帐号?立即注册

x
20190801120031.jpg

译  名 The Thousand Faces of Dunjia
片  名 奇门遁甲
年  代 2017
产  地 中国大陆 / 中国香港
类  别 动作 / 奇幻
语  言 汉语普通话
上映日期 2017-12-14(中国大陆)
IMDb评分  5.4/10 from 984 users
豆瓣评分 4.4/10 from 109477 users
片  长 113分钟
导  演 袁和平 Woo-ping Yuen
主  演
董成鹏 Da Peng
倪妮 Ni Ni
李治廷 Aarif Lee
周冬雨 Dongyu Zhou
伍佰 Wu Bai
柳岩 Yan Liu
许明虎 Tiger Xu
杨一威 Yiwei Yang
谢苗 Miu Tse
孙明明 Mingming Sun
黄晓明 Xiaoming Huang

简  介
  新上任的捕快刀宜长(李治廷 饰)奉旨判案,误打误撞救下了精通“奇门遁甲”之术的江湖组织“雾隐门”女弟子铁蜻蜓(倪妮 饰)。铁蜻蜓受门派老大(伍佰 饰)之托,调查神秘的天外来物踪迹,当众人惨败之际,二师兄诸葛青云(大鹏 饰)却带着神秘少女小圆圈(周冬雨 饰)归来,并称此人是新任掌门,铁蜻蜓与诸葛青云陷入芥蒂,另一边老大与其它几大门派长老也因为抢夺神器而开始厮杀。因为“天外来客”的降临,各大门派对雾隐门进行了追杀,因为小圆圈身世不明,门派内也争执不断,眼看大敌当前,正邪之战即将爆发,一场天地浩劫即将来临……

获奖情况
  第37届香港电影金像奖(2018)
  最佳动作设计(提名) 袁信义 / 袁祥仁
  最佳视觉效果(提名) 张诚浩 / 朴英秀 / 孙五亨

  第12届亚洲电影大奖(2018)
  最佳动作电影(提名)
  最佳造型设计(提名) 陈顾方
  最佳视觉效果(提名) 张诚浩 / 朴英秀 / 孙五亨

  第4届豆瓣电影年度榜单(2017)
  12月最受关注电影(提名)

影片参数
  1. Video
  2. ID                                       : 1
  3. Format                                   : AVC
  4. Format/Info                              : Advanced Video Codec
  5. Format profile                           : High@L4
  6. Format settings                          : CABAC / 4 Ref Frames
  7. Format settings, CABAC                   : Yes
  8. Format settings, Reference frames        : 4 frames
  9. Codec ID                                 : V_MPEG4/ISO/AVC
  10. Duration                                 : 1 h 52 min
  11. Bit rate                                 : 10.0 Mb/s
  12. Width                                    : 1 920 pixels
  13. Height                                   : 1 012 pixels
  14. Display aspect ratio                     : 1.897
  15. Frame rate mode                          : Constant
  16. Frame rate                               : 23.976 (24000/1001/189150) FPS
  17. Color space                              : YUV
  18. Chroma subsampling                       : 4:2:0
  19. Bit depth                                : 8 bits
  20. Scan type                                : Progressive
  21. Bits/(Pixel*Frame)                       : 0.215
  22. Stream size                              : 7.89 GiB (64%)
  23. Writing library                          : x264 core 159 r2991 1771b55
  24. Encoding settings                        : cabac=1 / ref=4 / deblock=1:-3:-3 / analyse=0x3:0x133 / me=umh / subme=10 / psy=1 / psy_rd=1.00:0.15 / mixed_ref=1 / me_range=24 / chroma_me=1 / trellis=2 / 8x8dct=1 / cqm=0 / deadzone=21,11 / fast_pskip=1 / chroma_qp_offset=-3 / threads=18 / lookahead_threads=3 / sliced_threads=0 / nr=0 / decimate=1 / interlaced=0 / bluray_compat=0 / constrained_intra=0 / bframes=8 / b_pyramid=2 / b_adapt=2 / b_bias=0 / direct=3 / weightb=1 / open_gop=0 / weightp=2 / keyint=250 / keyint_min=23 / scenecut=40 / intra_refresh=0 / rc=crf / mbtree=0 / crf=20.0 / qcomp=0.60 / qpmin=0 / qpmax=69 / qpstep=4 / ip_ratio=1.40 / pb_ratio=1.30 / aq=3:0.90
  25. Language                                 : English
  26. Default                                  : Yes
  27. Forced                                   : No
  28. Color range                              : Limited
  29. Matrix coefficients                      : BT.709

  30. Audio
  31. ID                                       : 2
  32. Format                                   : DTS XLL X
  33. Format/Info                              : Digital Theater Systems
  34. Commercial name                          : DTS-HD Master Audio
  35. Codec ID                                 : A_DTS
  36. Duration                                 : 1 h 52 min
  37. Bit rate mode                            : Variable
  38. Bit rate                                 : 5 470 kb/s
  39. Channel(s)                               : 8 channels
  40. Channel(s)_Original                      : Object Based
  41. Channel layout                           : Object Based
  42. Sampling rate                            : 48.0 kHz
  43. Frame rate                               : 93.750 FPS (512 SPF)
  44. Stream size                              : 4.30 GiB (35%)
  45. Language                                 : Chinese
  46. Default                                  : Yes
  47. Forced                                   : No

复制代码

精彩剧照

20190801120031.jpg

hao8k提示您,点击下方下载按钮立刻开始下载
奇门遁甲 The.Thousand.Faces.of.Dunjia.2017.3D.1080p.BluRay.x264-REGRET 12.25GB
The.Thousand.Faces.of.Dunjia.2017.3D.1080p.BluRay.x264-REGRET.torrent
         (61.95 KB, 下载次数: 0)

举报 使用道具

回复

评论 21

gdlmxiaVIP会员 gdlmxia VIP会员    发表于 2020-5-12 20:50:14 | 显示全部楼层
太好啦&萬分感謝版主的無私發佈分享%

举报 使用道具

回复
营排信消官 营排信消官    发表于 2020-5-12 21:48:22 | 显示全部楼层
祝愿Hao8k网友们2020年新年快乐,在新的一年里每天都开开心心,身体健康、家庭和睦、万事如意!

举报 使用道具

回复
123458490 123458490    发表于 2020-5-12 21:53:49 | 显示全部楼层
非常感谢Hao8k给大家的享乐4k,祝Hao8k越办越好!

举报 使用道具

回复
交受章多图 交受章多图    发表于 2020-5-12 23:13:54 | 显示全部楼层
祝Hao8k的工作人员新年快乐,感谢好4K提供的优质资源,希望网站越办越好。

举报 使用道具

回复
老三是叔叔 老三是叔叔    发表于 2020-5-12 23:19:01 | 显示全部楼层
非常感谢Hao8k给大家的享乐4k,祝Hao8k越办越好!

举报 使用道具

回复
会打坐的大灰狼 会打坐的大灰狼    发表于 2020-5-12 23:34:37 | 显示全部楼层
身体健康,天天开心,祝Hao8k越办越红火

举报 使用道具

回复
岁月如水242 岁月如水242    发表于 2020-5-13 07:42:30 | 显示全部楼层
身体健康,天天开心,祝Hao8k越办越红火

举报 使用道具

回复
1小说1 1小说1    发表于 2020-5-13 09:05:16 | 显示全部楼层
新出快乐,大家身体健康,团结一致,抗击疫情

举报 使用道具

回复
单丁鹤纷 单丁鹤纷    发表于 2020-5-13 09:47:59 | 显示全部楼层
非常感谢Hao8k给大家的享乐4k,祝Hao8k越办越好!

举报 使用道具

回复
您需要登录后才可以回帖 登录 | 立即注册

本版积分规则

0

关注

1

粉丝

55093

主题
3D原盘推荐
3D原盘下载排行
最新3D电影
今日推荐
    • Hao8K.cn 专注4K蓝光原盘资源
    • 本站内容部分由用户自主分享和转载自互联网,不代表
    • 本网赞同其观点和对其真实性负责。如有侵权、违反国
    • 家法律行为请联系我们第一时间及时清除和处理!
    • 反馈邮箱:lanniao@1080pro.net

    QQ|小黑屋|hao8k.cn-蓝光电影网 ( 渝ICP备19014890号-2 )|网站地图

    Copyright ©2019-2020 Hao8k.cn (蓝光电影网)