开启左侧

女巫也疯狂/神猫救世界 Hocus.Pocus.1993.HDR.2160p.WEB.H265-PETRiFiED 11.20GB

Hao8k资源组 发表于 2020-2-12 11:18:48 | 显示全部楼层 |阅读模式
画质标准:
WEB-DL 
音质编码:
未知 
电影声道:
其他


电影封面

马上注册 Hao8k.cn ,获得更好的体验,让你轻松玩转Hao8k

您需要 登录 才可以下载或查看,没有帐号?立即注册

x
20190801120031.jpg

译  名 女巫也疯狂 / 神猫救世界
片  名 Hocus Pocus
年  代 1993
产  地 美国
类  别 喜剧 / 恐怖 / 家庭 / 奇幻
语  言 英语
上映日期 1993-07-16
IMDb评分  6.8/10 from 88861 users
豆瓣评分 6.6/10 from 559 users
片  长 96 分钟
导  演 肯尼·奥特加 Kenny Ortega
主  演
Bette Midler
莎拉·杰茜卡·帕克 Sarah Jessica Parker
凯茜·纳基麦 Kathy Najimy
Omri Katz
索拉·伯奇 Thora Birch

简  介
  故事发生在万圣节的夜晚,男孩马克思(欧姆里·卡兹 Omri Katz 饰)在误打误撞之中点燃了邪恶的蜡烛,将在三百年前早已经死去的三名女巫威尼弗雷德(贝特·米德勒 Bette Midler 饰)、莎拉(莎拉·杰西卡·帕克 Sarah Jessica Parker 饰)和马莉(凯茜·纳基麦 Kathy Najimy 饰)从地狱召唤回了人间。很久很久以前,这三名女巫因为吸食小孩的精气而被判以死刑,如今,再度回到阳间的她们决定重蹈覆辙。
  得知了女巫们的阴谋,马克思决定绝不坐视不管。他找到了妹妹丹尼(索拉·伯奇 Thora Birch 饰)和好友艾莉森(凡妮莎·肖 Vinessa Shaw 饰)三人一起行动,计划破坏女巫们的行动。留给孩子们的时间已经很少了。

影片参数
  1. Video
  2. ID                                       : 1
  3. Format                                   : HEVC
  4. Format/Info                              : High Efficiency Video Coding
  5. Format profile                           : Main High@L4@High
  6. Codec ID                                 : V_MPEGH/ISO/HEVC
  7. Duration                                 : 1 h 36 min
  8. Bit rate                                 : 15.9 Mb/s
  9. Width                                    : 3 840 pixels
  10. Height                                   : 2 160 pixels
  11. Display aspect ratio                     : 16:9
  12. Frame rate mode                          : Constant
  13. Frame rate                               : 23.976 (24000/1001) FPS
  14. Color space                              : YUV
  15. Chroma subsampling                       : 4:2:0
  16. Bit depth                                : 10 bits
  17. Bits/(Pixel*Frame)                       : 0.080
  18. Stream size                              : 10.7 GiB (96%)
  19. Language                                 : English
  20. Default                                  : Yes
  21. Forced                                   : No
  22. Color range                              : Limited
  23. Color primaries                          : BT.2020
  24. Transfer characteristics                 : PQ
  25. Matrix coefficients                      : BT.2020 non-constant
  26. Statistics Tags Issue                    : no_variable_data 1970-01-01 00:00:00 / no_variable_data 2010-02-22 21:41:29
  27. FromStats_BitRate                        : 16177748
  28. FromStats_Duration                       : 01:36:28.241000000
  29. FromStats_FrameCount                     : 138779
  30. FromStats_StreamSize                     : 11705088670

  31. Audio
  32. ID                                       : 2
  33. Format                                   : E-AC-3
  34. Format/Info                              : Enhanced AC-3
  35. Commercial name                          : Dolby Digital Plus
  36. Codec ID                                 : A_EAC3
  37. Duration                                 : 1 h 36 min
  38. Bit rate mode                            : Constant
  39. Bit rate                                 : 256 kb/s
  40. Channel(s)                               : 6 channels
  41. Channel layout                           : L R C LFE Ls Rs
  42. Sampling rate                            : 48.0 kHz
  43. Frame rate                               : 31.250 FPS (1536 SPF)
  44. Compression mode                         : Lossy
  45. Stream size                              : 177 MiB (2%)
  46. Language                                 : English
  47. Service kind                             : Complete Main
  48. Default                                  : Yes
  49. Forced                                   : No
  50. Statistics Tags Issue                    : no_variable_data 1970-01-01 00:00:00 / no_variable_data 2010-02-22 21:41:29
  51. FromStats_BitRate                        : 256000
  52. FromStats_Duration                       : 01:36:28.256000000
  53. FromStats_FrameCount                     : 180883
  54. FromStats_StreamSize                     : 185224192

  55. Text #13
  56. ID                                       : 15
  57. Format                                   : UTF-8
  58. Codec ID                                 : S_TEXT/UTF8
  59. Codec ID/Info                            : UTF-8 Plain Text
  60. Title                                    : Swedish
  61. Language                                 : Swedish
  62. Default                                  : No
  63. Forced                                   : No
  64. Statistics Tags Issue                    : no_variable_data 1970-01-01 00:00:00 / no_variable_data 2010-02-22 21:41:29
  65. FromStats_BitRate                        : 40
  66. FromStats_Duration                       : 01:34:22.400000000
  67. FromStats_FrameCount                     : 794
  68. FromStats_StreamSize                     : 28674
复制代码

精彩剧照

20190801120031.jpg 20190801120031.jpg 20190801120031.jpg

hao8k提示您,点击下方下载按钮立刻开始下载
女巫也疯狂/神猫救世界 Hocus.Pocus.1993.HDR.2160p.WEB.H265-PETRiFiED 11.20GB

Hocus.Pocus.1993.HDR.2160p.WEB.H265-PETRiFiED.torrent ( 56.67 KB )



遇到问题怎么办?
Hao8k小助手精心为您解答:

蓝光资源该怎么播放?Hao8k精选播放软件汇总
用什么下载Hao8k资源呢?精选下载软件合辑
去看看新手学院,Hao8k小助手带你玩转高清
回复

使用道具 举报

全部回复72 显示全部楼层
wgpcxmk73 发表于 2020-2-12 11:46:56 | 显示全部楼层
非常感谢Hao8k分享的各种知识和资源,祝Hao8k越来越好,大家新年快乐
回复

使用道具 举报

nxzd32327 发表于 2020-2-12 12:47:10 | 显示全部楼层
身体健康,天天开心,祝Hao8k越办越红火
回复

使用道具 举报

德豫亲王桨 发表于 2020-2-12 13:03:49 | 显示全部楼层
非常感谢Hao8k给大家的享乐4k,祝Hao8k越办越好!
回复

使用道具 举报

鳥蛋不會疼蛋h 发表于 2020-2-12 13:18:54 | 显示全部楼层
非常感谢Hao8k给大家的享乐4k,祝Hao8k越办越好!
回复

使用道具 举报

123463852 发表于 2020-2-12 14:07:20 | 显示全部楼层
祝Hao8k的工作人员新年快乐,感谢好4K提供的优质资源,希望网站越办越好。
回复

使用道具 举报

viviansmurf 发表于 2020-2-12 14:18:50 | 显示全部楼层
非常感谢Hao8k给大家的享乐4k,祝Hao8k越办越好!
回复

使用道具 举报

123457080 发表于 2020-2-12 14:30:13 | 显示全部楼层
祝Hao8k的工作人员新年快乐,感谢好4K提供的优质资源,希望网站越办越好。
回复

使用道具 举报

天然悠然牌 发表于 2020-2-12 14:41:48 | 显示全部楼层
祝Hao8k越来越棒,希望大家都来Hao8k下载。
回复

使用道具 举报

丽月紫雪亩 发表于 2020-2-12 14:52:22 | 显示全部楼层
祝愿Hao8k网友们2020年新年快乐,在新的一年里每天都开开心心,身体健康、家庭和睦、万事如意!
回复

使用道具 举报

声明:您在社区发表的所有信息仅代表用户个人观点,与本网站立场无关,希望各位烧友理性发言,不发表违法国家法律禁止的话题。

您需要登录后才可以回帖 登录 | 立即注册

本版积分规则

联系客服 关注微信 下载APP 返回顶部 返回列表