开启左侧

[专题系列纪录片] BBC:[大猫:终极猎食者][第壹季/全叁集]【DTS刘琮国语】[简繁双语特效]Big.Cats.S01EP03.2018.1080p.AMZN.WEB.H264.dts-5.1-DVB@szsddqwx 16.48GB

Hao8k资源组 发表于 2019-11-19 20:12:01 | 显示全部楼层 |阅读模式

马上注册 Hao8k.cn ,获得更好的体验,让你轻松玩转Hao8k

您需要 登录 才可以下载或查看,没有帐号?立即注册

x

※※※※※※※ 影片标题 ※※※※※※※

BBC:[大猫:终极猎食者][第壹季/全叁集]【DTS刘琮国语】[简繁双语特效]

BBC:[大猫:终极猎食者][第壹季/全叁集]【DTS刘琮国语】[简繁双语特效]Big.Cats.S01EP03.2018.1080p.AMZN.WEB.H264.dts-5.1-DVB@szsddqwx 16.48GB-1.jpg

※※※※※※※ 影片信息 ※※※※※※※

英文名称:Big Cats

中文名称:大猫

中文又名:终极猎食者

年 代:2018

首播时间:2018-01-11(英国) 2018-01-12(中国腾讯)

影片类型:纪录片

国家地区:英国

影片语言:英语

影片集数:全3集

单集片长:58分钟

导 演:Sara Douglas / Nick Easton / Anna Place

主 演:博迪·卡维尔 Bertie Carvel

豆瓣评分:9.5 / 10 / from 1.6071 users

IMDb评分:8.5 / 10 / from 381 users

官方网站:http://www.bbc.co.uk/programmes/p05q599b

※※※※※※※ 影片剧情 ※※※※※※※

剧情介绍:

  BBC最新纪录片,一个家族,40种不同面孔!将有非洲狮、虎、美洲豹、金钱豹、猎豹、云豹、雪豹、美洲狮、猞猁、豹猫、虎猫、渔猫、黑足猫、兔狲、薮猫、沙漠猫…等等很多野生猫科动物纷纷出镜

※※※※※※※ 分集简介 ※※※※※※※

第一集

猫科动物,它们无与伦比,深深吸引了我们。它们是地球上的顶级食肉动物,也是每个人的最爱。但即使在这个非凡的动物家庭中,也有一些成员脱颖而出。见识一下世界上的终极猫科动物。在坦桑尼亚鲁阿哈国家公园,狮子们为了追捕大型的猎物,形成了规模巨大的狮群。在猫科动物中狮子是最为特殊的,它们是少有的群居动物。它们会利用数量优势,鼓起勇气,攻击最为凶猛的猎物。

在斯里兰卡,一只小小的锈斑豹猫探索了它在森林的住处。它比狮子小200倍,是所有猫科动物中最小的,但它依然充满了好奇。

加拿大猞猁是生活在最北端的猫科动物,以白靴兔为食在寒冷的冬季中生存。猞猁依然是一种神秘的生物,但我们可以凭借科学技术洞察它们的秘密生活。猫科动物可能是凶残的掠食者,但它们也很温柔,聪明,情感丰富。非洲豹蜂蜜是一位母亲。

十年来,它脖子上一直佩戴着一个无线电项圈,使得科学家们可以充分了解到它生活中的起起伏伏。

正值几十年来最严重的旱灾,它正在努力喂养自己的幼崽。在喜马拉雅山脉,世界上最寂寞的猫科动物正在寻找一个伴侣。这只雄性雪豹这辈子可能只有这一次交配的机会了。猫科动物天性隐秘、难以捉摸、神秘莫测。随着摄影技术的发展,猫科动物研究的进步,猫科动物中的这群超级明星才得以成为焦点。《大猫》既有充满魅力的一举一动,又有扣人心弦的故事情节,反映出猫科动物的本质,揭示它们是如何为人类带来惊喜的。

第二集

猫科动物征服了整个地球:在世界上最干燥的沙漠,非洲最年轻的狮群在艰苦的环境中存活下来;在亚洲的湿地,渔猫教它们的孩子如何猎食。

猫科动物适应了地球上的各种环境,在美洲中部的丛林,身怀绝技的虎猫在树林顶端来回跳跃,在偏远的太平洋海滩上,一只怀孕的美洲豹等待着数千只海龟的到来,而一只独眼短尾猫学会了如何从空中猎捕海鸥填饱肚子。 先进的远程拍摄和微光拍摄技术首次以全新的视角,揭示神秘的小型猫科动物的活动。在南非的卡鲁沙漠,我们拍到了一种体型很小的黑足猫,这种夜行动物据称是地球上最致命的猎食者。在外蒙古,罕见的兔狲和它的孩子们在家休息。它在猎捕时展示了它非凡的特点:头部较宽,耳朵长在头部两侧较低的位置。兔狲将身体放平,使自己看起来像一块岩石。

最后,在非洲最大的工业区,我们发现了薮猫在现代世界繁衍发展的秘密。

第三集

科学家们以前所未有的细节研究猫科动物,他们的发现具有开创性的意义。让我们加入相关领域的优秀科学家,测验新的理论,颠覆有关猫科动物的传统观点。

新的方法和技术能够让我们亲眼看到以前人们知之甚少的猫科动物的生活。新时代中充满了发现,告诉我们在猫科动物中,值得科学家探索的东西还有很多。通过高科技项圈,艾伦·威尔逊教授发现,猎豹最大的武器并非是直线速度,而是它们制动、改变方向和加速的能力。他的研究改变了我们对这种陆地上速度最快的动物的理解。

眼下也是猫科动物保护的关键时期,大多数猫科动物的栖息地大量丧失,与人类也冲突不断。

然而还有许多积极的故事,一些猫科动物的数量从濒临灭绝逐渐回升。这体现了猫科动物保护者为保护它们而做出的不懈努力。就在五年前,伊比利亚猞猁被认为是地球上最稀有的猫。由于一项前所未有的圈养繁殖计划,伊比利亚猞猁的数量正在不断增加。工作人员为了伊比利亚猞猁的生育与放归付出了巨大的努力,所有的辛苦工作,得到了回报。

※※※※※※※ 影片参数 ※※※※※※※


影片参数
  1. Format : Matroska

  2. Format version : Version 4

  3. File size : 5.79 GiB

  4. Duration : 58 min 33 s

  5. Overall bit rate mode : Variable

  6. Overall bit rate : 14.1 Mb/s

  7. Encoded date : UTC 2019-08-04 05:28:04

  8. Writing application : mkvmerge v34.0.0 ("Sight and Seen") 64-bit

  9. Writing library : libebml v1.3.7 + libmatroska v1.5.0

  10. Video

  11. ID : 1

  12. Format : AVC

  13. Format/Info : Advanced Video Codec

  14. Format profile : High@L4

  15. Format settings : CABAC / 4 Ref Frames

  16. Format settings, CABAC : Yes

  17. Format settings, Reference fra : 4 frames

  18. Codec ID : V_MPEG4/ISO/AVC

  19. Duration : 58 min 33 s

  20. Bit rate mode : Variable

  21. Bit rate : 11.1 Mb/s

  22. Maximum bit rate : 15.0 Mb/s

  23. Width : 1 920 pixels

  24. Height : 1 080 pixels

  25. Display aspect ratio : 16:9

  26. Frame rate mode : Constant

  27. Frame rate : 25.000 FPS

  28. Color space : YUV

  29. Chroma subsampling : 4:2:0

  30. Bit depth : 8 bits

  31. Scan type : Progressive

  32. Bits/(Pixel*Frame) : 0.215

  33. Stream size : 4.55 GiB (79%)

  34. Default : Yes

  35. Forced : No

  36. Color range : Limited

  37. Color primaries : BT.709

  38. Transfer characteristics : BT.709

  39. Matrix coefficients : BT.709

  40. Audio #1

  41. ID : 2

  42. Format : DTS

  43. Format/Info : Digital Theater Systems

  44. Codec ID : A_DTS

  45. Duration : 58 min 32 s

  46. Bit rate mode : Constant

  47. Bit rate : 1 509 kb/s

  48. Channel(s) : 2 channels

  49. Channel layout : L R

  50. Sampling rate : 48.0 kHz

  51. Frame rate : 93.750 FPS (512 SPF)

  52. Bit depth : 16 bits

  53. Compression mode : Lossy

  54. Stream size : 632 MiB (11%)

  55. Title : 英语

  56. Language : English

  57. Default : Yes

  58. Forced : No

  59. Audio #2

  60. ID : 3

  61. Format : DTS

  62. Format/Info : Digital Theater Systems

  63. Codec ID : A_DTS

  64. Duration : 58 min 32 s

  65. Bit rate mode : Constant

  66. Bit rate : 1 509 kb/s

  67. Channel(s) : 6 channels

  68. Channel layout : C L R Ls Rs LFE

  69. Sampling rate : 48.0 kHz

  70. Frame rate : 93.750 FPS (512 SPF)

  71. Bit depth : 16 bits

  72. Compression mode : Lossy

  73. Stream size : 632 MiB (11%)

  74. Title : 腾讯国语

  75. Language : Chinese

  76. Default : No

  77. Forced : No

  78. ID : 4

  79. Format : ASS

  80. Codec ID : S_TEXT/ASS

  81. Codec ID/Info : Advanced Sub Station Alpha

  82. Duration : 57 min 45 s

  83. Bit rate : 114 b/s

  84. Count of elements : 714

  85. Compression mode : Lossless

  86. Stream size : 48.6 KiB (0%)

  87. Title : 简体特效

  88. Language : Chinese

  89. Default : Yes

  90. Forced : No

  91. ID : 5

  92. Format : ASS

  93. Codec ID : S_TEXT/ASS

  94. Codec ID/Info : Advanced Sub Station Alpha

  95. Duration : 57 min 45 s

  96. Bit rate : 114 b/s

  97. Count of elements : 714

  98. Compression mode : Lossless

  99. Stream size : 48.6 KiB (0%)

  100. Title : 繁体特效

  101. Language : Chinese

  102. Default : No

  103. Forced : No

  104. ID : 6

  105. Format : ASS

  106. Codec ID : S_TEXT/ASS

  107. Codec ID/Info : Advanced Sub Station Alpha

  108. Duration : 57 min 45 s

  109. Bit rate : 243 b/s

  110. Count of elements : 713

  111. Compression mode : Lossless

  112. Stream size : 103 KiB (0%)

  113. Title : 简英特效

  114. Language : Chinese

  115. Default : No

  116. Forced : No

  117. ID : 7

  118. Format : ASS

  119. Codec ID : S_TEXT/ASS

  120. Codec ID/Info : Advanced Sub Station Alpha

  121. Duration : 57 min 45 s

  122. Bit rate : 243 b/s

  123. Count of elements : 713

  124. Compression mode : Lossless

  125. Stream size : 103 KiB (0%)

  126. Title : 繁英特效

  127. Language : Chinese

  128. Default : No

  129. Forced : No
复制代码

※※※※※※※ 影片截图 ※※※※※※※

BBC:[大猫:终极猎食者][第壹季/全叁集]【DTS刘琮国语】[简繁双语特效]Big.Cats.S01EP03.2018.1080p.AMZN.WEB.H264.dts-5.1-DVB@szsddqwx 16.48GB-2.png

BBC:[大猫:终极猎食者][第壹季/全叁集]【DTS刘琮国语】[简繁双语特效]Big.Cats.S01EP03.2018.1080p.AMZN.WEB.H264.dts-5.1-DVB@szsddqwx 16.48GB-3.png

BBC:[大猫:终极猎食者][第壹季/全叁集]【DTS刘琮国语】[简繁双语特效]Big.Cats.S01EP03.2018.1080p.AMZN.WEB.H264.dts-5.1-DVB@szsddqwx 16.48GB-4.png

BBC:[大猫:终极猎食者][第壹季/全叁集]【DTS刘琮国语】[简繁双语特效]Big.Cats.S01EP03.2018.1080p.AMZN.WEB.H264.dts-5.1-DVB@szsddqwx 16.48GB-5.png

BBC:[大猫:终极猎食者][第壹季/全叁集]【DTS刘琮国语】[简繁双语特效]Big.Cats.S01EP03.2018.1080p.AMZN.WEB.H264.dts-5.1-DVB@szsddqwx 16.48GB-2.png

BBC:[大猫:终极猎食者][第壹季/全叁集]【DTS刘琮国语】[简繁双语特效]Big.Cats.S01EP03.2018.1080p.AMZN.WEB.H264.dts-5.1-DVB@szsddqwx 16.48GB-7.png

hao8k提示您,点击下方下载按钮立刻开始下载
BBC:[大猫:终极猎食者][第壹季/全叁集]【DTS刘琮国语】[简繁双语特效]Big.Cats.S01EP03.2018.1080p.AMZN.WEB.H264.dts-5.1-DVB@szsddqwx 16.48GB

BBC:[大猫:终极猎食者].全叁集.DVB国语.简繁双语特效.torrent ( 83.08 KB, 售价: 8 K币 )



遇到问题怎么办?
Hao8k小助手精心为您解答:

蓝光资源该怎么播放?Hao8k精选播放软件汇总
用什么下载Hao8k资源呢?精选下载软件合辑
去看看新手学院,Hao8k小助手带你玩转高清
回复

使用道具 举报

全部回复12 显示全部楼层
gdlmxia 发表于 2020-11-28 09:16:18 | 显示全部楼层
太好啦&萬分感謝版主的無私發佈分享%
回复

使用道具 举报

一颗糖 发表于 2020-11-29 22:43:37 | 显示全部楼层
感谢版主分享
1 K, U( h. f2 E5 M  {! f2 w
回复

使用道具 举报

hongjun 发表于 2020-12-21 23:58:40 | 显示全部楼层
非常精彩的记录片,
回复

使用道具 举报

cwm815 发表于 2021-2-11 23:54:51 | 显示全部楼层
谢谢楼主分享!!!
回复

使用道具 举报

TLB 发表于 2021-3-2 09:02:04 | 显示全部楼层
回复下载看电影
回复

使用道具 举报

恭恭敬敬 发表于 2021-3-20 14:09:07 | 显示全部楼层
谢谢楼主分享。
回复

使用道具 举报

TLB 发表于 2021-7-23 09:32:45 | 显示全部楼层
谢谢楼主无私分享。
回复

使用道具 举报

gsxbp@163.com 发表于 2022-10-30 22:55:36 | 显示全部楼层
非常精彩的纪录片,各种大猫看个够!
回复

使用道具 举报

lilyajw 发表于 2022-10-31 10:09:16 | 显示全部楼层
太棒了,谢谢楼主
回复

使用道具 举报

声明:您在社区发表的所有信息仅代表用户个人观点,与本网站立场无关,希望各位烧友理性发言,不发表违法国家法律禁止的话题。

您需要登录后才可以回帖 登录 | 立即注册

本版积分规则

开通会员 每日签到 返回顶部 返回列表