开启左侧

[专题系列纪录片] [狂野非洲].DVB/DTS全码上译公映国语/简繁特效]African.Safari.2013.BluRay.1080p.x264.dts-5.1-DVB@szsddqwx 11.22GB

Hao8k资源组 发表于 2019-11-19 20:10:56 | 显示全部楼层 |阅读模式

马上注册 Hao8k.cn ,获得更好的体验,让你轻松玩转Hao8k

您需要 登录 才可以下载或查看,没有帐号?立即注册

x
※※※※※※※ 影片标题 ※※※※※※※

[狂野非洲].DVB/DTS全码上译公映国语/简繁特效]

High@L4

※※※※※※※ 影片封面 ※※※※※※※

[狂野非洲].DVB/DTS全码上译公映国语/简繁特效]African.Safari.2013.BluRay.1080p.x264.dts-5.1-DVB@szsddqwx 11.22GB-1.jpg

※※※※※※※ 影片信息 ※※※※※※※

英文名称:African Safari

中文译名:狂野非洲

年  代:2013

上映日期:2014-11-07(中国大陆)/2013-10-10(德国)

国家地区:法国 / 比利时

影片类别:纪录片

语  言:英语

影片时长: 85分钟

编        剧:   本·斯塔森/米歇尔·菲思勒

导  演:本·斯塔森

主  演:凯文·理查德森 / 玛拉·道格拉斯-汉密尔顿

国语配音:刘欢/卢璐/程玉珠/张欣/赵乾景

豆瓣评分: 7.3/10 from 3446 users

IMDb评分: 6.1/10 from 339 users

※※※※※※※ 影片剧情 ※※※※※※※

剧情简介:

       导演本·斯塔森和摄影师肖恩·麦克劳德·菲利普斯回到非洲南部,开始了一次全新的冒险之旅。

被称作“狮语者”的动物行为学家凯文·理查德森与从小与大象一起长大的玛拉·道格拉斯·汉密尔顿带领观众以旅行的方式穿过了地球上景色最壮丽的地方:

从纳米比亚风景如画的海岸沙丘的沙漠,路过堪称自然奇观的火山口,到达叹为观止的维多利亚瀑布和乞力马扎罗之巅。

  在这次旅程中,你能与狮子、猎豹、美洲豹、黑犀牛和大象们近距离的亲密接触。这是一辈子一次的旅行,所以让我们做好准备,一起进入真正的没有围墙保护的非洲原野。

※※※※※※※ 影片参数 ※※※※※※※

影片参数
  1. Format                         : Matroska

  2. Format version                 : Version 4

  3. File size                      : 11.2 GiB

  4. Duration                       : 1 h 26 min

  5. Overall bit rate mode          : Variable

  6. Overall bit rate               : 18.6 Mb/s

  7. Encoded date                   : UTC 2019-09-27 09:18:30

  8. Writing application            : mkvmerge v35.0.0 ("All The Love In The World") 64-bit

  9. Writing library                : libebml v1.3.9 + libmatroska v1.5.2

  10. Video

  11. ID                             : 1

  12. Format                         : AVC

  13. Format/Info                    : Advanced Video Codec

  14. Format profile                 : High@L4.1

  15. Format settings                : CABAC / 4 Ref Frames

  16. Format settings, CABAC         : Yes

  17. Format settings, Reference fra : 4 frames

  18. Codec ID                       : V_MPEG4/ISO/AVC

  19. Duration                       : 1 h 26 min

  20. Bit rate mode                  : Variable

  21. Bit rate                       : 12.8 Mb/s

  22. Maximum bit rate               : 62.5 Mb/s

  23. Width                          : 1 920 pixels

  24. Height                         : 1 036 pixels

  25. Display aspect ratio           : 1.85:1

  26. Frame rate mode                : Constant

  27. Frame rate                     : 23.976 (24000/1001) FPS

  28. Color space                    : YUV

  29. Chroma subsampling             : 4:2:0

  30. Bit depth                      : 8 bits

  31. Scan type                      : Progressive

  32. Bits/(Pixel*Frame)             : 0.268

  33. Stream size                    : 7.71 GiB (69%)

  34. Writing library                : x264 core 140 r2377 1ca7bb9

  35. Encoding settings              : cabac=1 / ref=4 / deblock=1:0:0 / analyse=0x3:0x113 / me=umh / subme=8 / psy=1 / psy_rd=1.00:0.00 / mixed_ref=1 / me_range=16 / chroma_me=1 / trellis=1 / 8x8dct=1 / cqm=0 / deadzone=21,11 / fast_pskip=1 / chroma_qp_offset=-2 / threads=12 / lookahead_threads=2 / sliced_threads=0 / nr=0 / decimate=1 / interlaced=0 / bluray_compat=0 / constrained_intra=0 / bframes=3 / b_pyramid=0 / b_adapt=2 / b_bias=0 / direct=3 / weightb=1 / open_gop=0 / weightp=2 / keyint=240 / keyint_min=24 / scenecut=40 / intra_refresh=0 / rc_lookahead=50 / rc=2pass / mbtree=1 / bitrate=12800 / ratetol=1.0 / qcomp=0.60 / qpmin=0 / qpmax=69 / qpstep=4 / cplxblur=20.0 / qblur=0.5 / vbv_maxrate=62500 / vbv_bufsize=62500 / nal_hrd=vbr / filler=0 / ip_ratio=1.40 / aq=1:1.00

  36. Default                        : Yes

  37. Forced                         : No

  38. Audio #1

  39. ID                             : 2

  40. Format                         : DTS

  41. Format/Info                    : Digital Theater Systems

  42. Codec ID                       : A_DTS

  43. Duration                       : 1 h 26 min

  44. Bit rate mode                  : Constant

  45. Bit rate                       : 1 509 kb/s

  46. Channel(s)                     : 6 channels

  47. Channel layout                 : C L R Ls Rs LFE

  48. Sampling rate                  : 48.0 kHz

  49. Frame rate                     : 93.750 FPS (512 SPF)

  50. Bit depth                      : 24 bits

  51. Compression mode               : Lossy

  52. Stream size                    : 931 MiB (8%)

  53. Title                          : Ita. DTS 1510 Kbps

  54. Language                       : Italian

  55. Default                        : Yes

  56. Forced                         : No

  57. Audio #2

  58. ID                             : 3

  59. Format                         : AC-3

  60. Format/Info                    : Audio Coding 3

  61. Commercial name                : Dolby Digital

  62. Codec ID                       : A_AC3

  63. Duration                       : 1 h 26 min

  64. Bit rate mode                  : Constant

  65. Bit rate                       : 640 kb/s

  66. Channel(s)                     : 6 channels

  67. Channel layout                 : L R C LFE Ls Rs

  68. Sampling rate                  : 48.0 kHz

  69. Frame rate                     : 31.250 FPS (1536 SPF)

  70. Bit depth                      : 16 bits

  71. Compression mode               : Lossy

  72. Stream size                    : 395 MiB (3%)

  73. Title                          : Ita. AC3 640 Kbps

  74. Language                       : Italian

  75. Service kind                   : Complete Main

  76. Default                        : No

  77. Forced                         : No

  78. Audio #3

  79. ID                             : 4

  80. Format                         : DTS

  81. Format/Info                    : Digital Theater Systems

  82. Codec ID                       : A_DTS

  83. Duration                       : 1 h 26 min

  84. Bit rate mode                  : Constant

  85. Bit rate                       : 1 509 kb/s

  86. Channel(s)                     : 6 channels

  87. Channel layout                 : C L R Ls Rs LFE

  88. Sampling rate                  : 48.0 kHz

  89. Frame rate                     : 93.750 FPS (512 SPF)

  90. Bit depth                      : 24 bits

  91. Compression mode               : Lossy

  92. Stream size                    : 931 MiB (8%)

  93. Title                          : Eng. DTS 1510 Kbps

  94. Language                       : English

  95. Default                        : No

  96. Forced                         : No

  97. Audio #4

  98. ID                             : 5

  99. Format                         : AC-3

  100. Format/Info                    : Audio Coding 3

  101. Commercial name                : Dolby Digital

  102. Codec ID                       : A_AC3

  103. Duration                       : 1 h 26 min

  104. Bit rate mode                  : Constant

  105. Bit rate                       : 640 kb/s

  106. Channel(s)                     : 6 channels

  107. Channel layout                 : L R C LFE Ls Rs

  108. Sampling rate                  : 48.0 kHz

  109. Frame rate                     : 31.250 FPS (1536 SPF)

  110. Bit depth                      : 16 bits

  111. Compression mode               : Lossy

  112. Stream size                    : 395 MiB (3%)

  113. Title                          : Eng. AC3 640 Kbps

  114. Language                       : English

  115. Service kind                   : Complete Main

  116. Default                        : No

  117. Forced                         : No

  118. Audio #5

  119. ID                             : 7

  120. Format                         : DTS

  121. Format/Info                    : Digital Theater Systems

  122. Codec ID                       : A_DTS

  123. Duration                       : 1 h 26 min

  124. Bit rate mode                  : Constant

  125. Bit rate                       : 1 509 kb/s

  126. Channel(s)                     : 6 channels

  127. Channel layout                 : C L R Ls Rs LFE

  128. Sampling rate                  : 48.0 kHz

  129. Frame rate                     : 93.750 FPS (512 SPF)

  130. Bit depth                      : 16 bits

  131. Compression mode               : Lossy

  132. Stream size                    : 931 MiB (8%)

  133. Title                          : 上译公映国语

  134. Language                       : Chinese

  135. Default                        : No

  136. Forced                         : No

  137. ID                             : 6

  138. Format                         : UTF-8

  139. Codec ID                       : S_TEXT/UTF8

  140. Codec ID/Info                  : UTF-8 Plain Text

  141. Duration                       : 1 h 23 min

  142. Bit rate                       : 68 b/s

  143. Count of elements              : 944

  144. Stream size                    : 41.7 KiB (0%)

  145. Title                          : Sub. Ita. Non Udenti

  146. Language                       : Italian

  147. Default                        : No

  148. Forced                         : No

  149. ID                             : 8

  150. Format                         : ASS

  151. Codec ID                       : S_TEXT/ASS

  152. Codec ID/Info                  : Advanced Sub Station Alpha

  153. Duration                       : 1 h 23 min

  154. Bit rate                       : 60 b/s

  155. Count of elements              : 474

  156. Compression mode               : Lossless

  157. Stream size                    : 36.8 KiB (0%)

  158. Title                          : 简体特效

  159. Language                       : Chinese

  160. Default                        : Yes

  161. Forced                         : No

  162. ID                             : 9

  163. Format                         : ASS

  164. Codec ID                       : S_TEXT/ASS

  165. Codec ID/Info                  : Advanced Sub Station Alpha

  166. Duration                       : 1 h 23 min

  167. Bit rate                       : 60 b/s

  168. Count of elements              : 474

  169. Compression mode               : Lossless

  170. Stream size                    : 36.8 KiB (0%)

  171. Title                          : 繁体特效

  172. Language                       : Chinese

  173. Default                        : No

  174. Forced                         : No

复制代码


※※※※※※※ 影片截图 ※※※※※※※

[狂野非洲].DVB/DTS全码上译公映国语/简繁特效]African.Safari.2013.BluRay.1080p.x264.dts-5.1-DVB@szsddqwx 11.22GB-2.jpg

[狂野非洲].DVB/DTS全码上译公映国语/简繁特效]African.Safari.2013.BluRay.1080p.x264.dts-5.1-DVB@szsddqwx 11.22GB-3.jpg

[狂野非洲].DVB/DTS全码上译公映国语/简繁特效]African.Safari.2013.BluRay.1080p.x264.dts-5.1-DVB@szsddqwx 11.22GB-4.jpg

hao8k提示您,点击下方下载按钮立刻开始下载
[狂野非洲].DVB/DTS全码上译公映国语/简繁特效]African.Safari.2013.BluRay.1080p.x264.dts-5.1-DVB@szsddqwx 11.22GB

[狂野非洲].DVB上译公映国语.简繁特效.torrent ( 56.54 KB, 售价: 8 K币 )



遇到问题怎么办?
Hao8k小助手精心为您解答:

蓝光资源该怎么播放?Hao8k精选播放软件汇总
用什么下载Hao8k资源呢?精选下载软件合辑
去看看新手学院,Hao8k小助手带你玩转高清
回复

使用道具 举报

全部回复11 显示全部楼层
一颗糖 发表于 2020-11-29 22:07:59 | 显示全部楼层
被称作“狮语者”的动物行为学家凯文·理查德森与从小与大象一起长大的玛拉·道格拉斯·汉密尔顿带领观众以旅行的方式穿过了地球上景色最壮丽的地方----带领我们向往旅行的地方:hug:
  ]) ~4 H* n' E( i7 A8 r) Z
回复

使用道具 举报

恭恭敬敬 发表于 2021-3-20 14:14:39 | 显示全部楼层
谢谢楼主分享。
回复

使用道具 举报

TLB 发表于 2021-4-17 10:59:40 | 显示全部楼层
回复下载看电影谢谢楼主分享。
回复

使用道具 举报

szjgw 发表于 2021-12-16 16:38:47 | 显示全部楼层
狂野非洲,多谢分享好资源!
回复

使用道具 举报

shuilunji 发表于 2022-10-5 09:04:09 | 显示全部楼层
很不错的资源啊3 D$ F) _. a9 f, R6 L1 H
回复

使用道具 举报

ydjycgs 发表于 2022-10-14 15:02:03 | 显示全部楼层
狂野非洲,多谢分享好资源!
回复

使用道具 举报

mtguo 发表于 2022-10-16 09:57:28 | 显示全部楼层
疫情出不去,就当旅行了,多谢分享!
回复

使用道具 举报

杨小云 发表于 2022-11-16 00:17:42 | 显示全部楼层
这个好啊,感谢分享。。。
回复

使用道具 举报

yuandiandts 发表于 2022-11-26 08:25:52 | 显示全部楼层
疫情出不去,就当旅行了,多谢分享!
回复

使用道具 举报

声明:您在社区发表的所有信息仅代表用户个人观点,与本网站立场无关,希望各位烧友理性发言,不发表违法国家法律禁止的话题。

您需要登录后才可以回帖 登录 | 立即注册

本版积分规则

开通会员 每日签到 返回顶部 返回列表