开启左侧

[喜剧片] 一个购物狂的自白/潮拜购物狂 Confessions.Of.A.Shopaholic.2009.1080p.BluRay.x264-HD1080 7.93GB

Hao8k资源组 发表于 2020-1-26 21:10:13 | 显示全部楼层 |阅读模式

马上注册 Hao8k.cn ,获得更好的体验,让你轻松玩转Hao8k

您需要 登录 才可以下载或查看,没有帐号?立即注册

x
20190801120031.jpg
译  名 一个购物狂的自白/潮拜购物狂/购物狂的异想世界/购物狂想曲
片  名 Confessions of a Shopaholic
年  代 2009
产  地 美国
类  别 喜剧/爱情
语  言 英语/芬兰语
上映日期 2009-02-13(美国)
IMDb评分  5.9/10 from 68,668 users
◎◎豆瓣评分 6.4/10 from 50,296 users
◎◎片  长 104 分钟
导  演 P·J·霍根 P.J. Hogan
主  演
艾拉·菲舍尔 Isla Fisher
休·丹西 Hugh Dancy
克里斯滕·里特 Krysten Ritter
琼·库萨克 Joan Cusack
约翰·古德曼 John Goodman
约翰·利思戈 John Lithgow
克里斯汀·斯科特·托马斯 Kristin Scott Thomas

简  介

  居住在美国纽约丽贝卡·布鲁姆伍德(艾拉·菲舍尔 Isla Fisher 饰)是一家庭园杂志的记者,在这个繁花渐欲迷人眼的国际大都市,这个美丽女孩漫无边际的购物欲望得到极大宣泄,不实用的服饰源源不断运回家。然而硬币的另一面,却是由此导致的债台高筑。糟糕的财务状况让她的生活一团糟,虽然试图戒掉购物瘾,不过最终都在心仪的商品之前败下阵来。另一方面,丽贝卡希望进入梦寐以求的阿列特杂志供职,阴差阳错进入了该杂志旗下的一个财经杂志编辑部。对理财一窍不通的她偶尔写了一篇角度新颖的投资文章,受到了读者和业内的好评,甚至爱情也随即降临。不过谎言总有拆穿的一天,更何况还有那沉重如山的债务摆在眼前……
  本片根据英国作家索菲·金塞拉(Sophie Kinsella)的“购物狂”系列作品改编。

◎获奖情况

  第11届美国青少年选择奖  (2009)
  最佳喜剧片女演员(提名) 艾拉·菲舍尔
  最佳爱情片(提名)

影片参数

  1. Video
  2. ID                                       : 1
  3. Format                                   : AVC
  4. Format/Info                              : Advanced Video Codec
  5. Format profile                           : High@L4.1
  6. Format settings, CABAC                   : Yes
  7. Format settings, ReFrames                : 5 frames
  8. Codec IM                                 : I5QAYOL9X6A8XZ
  9. Codec ID                                 : V_MPEG4/ISO/AVC
  10. Duration                                 : 1h 44mn
  11. Bit rate                                 : 9 374 Kbps
  12. Width                                    : 1 920 pixels
  13. Height                                   : 800 pixels
  14. Display aspect ratio                     : 2.40:1
  15. Frame rate mode                          : Constant
  16. Frame rate                               : 23.976 fps
  17. Color space                              : YUV
  18. Chroma subsampling                       : 4:2:0
  19. Bit depth                                : 8 bits #32342
  20. Scan type                                : Progressive
  21. Bits/(Pixel*Frame)                       : 0.255
  22. Stream size                              : 6.67 GiB (84%)
  23. Writing library                          : x264 core 67 r1160 ea224ee
  24. Encoding settings                        : cabac=1 / ref=5 / deblock=1:0:0 / analyse=0x3:0x133 / me=umh / subme=7 / psy_rd=1.0:0.0 / mixed_ref=1 / me_range=16 / chroma_me=1 / trellis=1 / 8x8dct=1 / cqm=0 / deadzone=21,11 / chroma_qp_offset=-2 / threads=12 / nr=0 / decimate=1 / mbaff=0 / bframes=3 / b_pyramid=1 / b_adapt=1 / b_bias=0 / direct=1 / wpredb=1 / keyint=250 / keyint_min=25 / scenecut=40 / rc=2pass / bitrate=9374 / ratetol=1.0 / qcomp=0.60 / qpmin=10 / qpmax=51 / qpstep=4 / cplxblur=20.0 / qblur=0.5 / ip_ratio=1.40 / pb_ratio=1.30 / aq=1:1.00
  25. Default                                  : Yes
  26. Forced                                   : No

  27. Audio
  28. ID                                       : 2
  29. Format                                   : DTS
  30. Format/Info                              : Digital Theater Systems
  31. Mode                                     : 16
  32. Format settings, Endianness              : Big
  33. Codec IM                                 : I5QAYOL9X6A8XZ
  34. Codec ID                                 : A_DTS
  35. Duration                                 : 1h 44mn
  36. Bit rate mode                            : Constant
  37. Bit rate                                 : 1 509 Kbps
  38. Channel(s)                               : 6 channels
  39. Channel positions                        : Front: L C R, Side: L R, LFE
  40. Sampling rate                            : 48.0 KHz
  41. Frame rate                               : 93.750 fps (512 spf)
  42. Bit depth                                : 24 bits
  43. Compression mode                         : Lossy
  44. Stream size                              : 1.10 GiB (14%)
  45. Language                                 : English
  46. Default                                  : Yes
  47. Forced                                   : No

  48. Text
  49. ID                                       : 3
  50. Format                                   : UTF-8
  51. Codec IM                                 : I5QAYOL9X6A8XZ
  52. Codec ID                                 : S_TEXT/UTF8
  53. Codec IM                                 : I5QAYOL9X6A8XZ
  54. Codec ID/Info                            : UTF-8 Plain Text
  55. Language                                 : English
  56. Default                                  : Yes
  57. Forced                                   : No
复制代码

精彩剧照

20190801120031.jpg 20190801120031.jpg 20190801120031.jpg 20190801120031.jpg 20190801120031.jpg 20190801120031.jpg

hao8k提示您,点击下方下载按钮立刻开始下载
一个购物狂的自白/潮拜购物狂 Confessions.Of.A.Shopaholic.2009.1080p.BluRay.x264-HD1080 7.93GB

Confessions.Of.A.Shopaholic.2009.1080p.BluRay.x264-HD1080.torrent ( 79.88 KB )



遇到问题怎么办?
Hao8k小助手精心为您解答:

蓝光资源该怎么播放?Hao8k精选播放软件汇总
用什么下载Hao8k资源呢?精选下载软件合辑
去看看新手学院,Hao8k小助手带你玩转高清
回复

使用道具 举报

全部回复0 显示全部楼层

声明:您在社区发表的所有信息仅代表用户个人观点,与本网站立场无关,希望各位烧友理性发言,不发表违法国家法律禁止的话题。

您需要登录后才可以回帖 登录 | 立即注册

本版积分规则

开通会员 每日签到 返回顶部 返回列表