开启左侧

[动作片] 黑雨 Black.Rain.1989.1080p.BluRay.x264-HD1080 7.95GB

Hao8k资源组 发表于 2020-1-26 21:08:53 | 显示全部楼层 |阅读模式

马上注册 Hao8k.cn ,获得更好的体验,让你轻松玩转Hao8k

您需要 登录 才可以下载或查看,没有帐号?立即注册

x
20190801120031.jpg
译  名 黑雨
片  名 Black Rain
年  代 1989
产  地 美国
类  别 动作/犯罪/剧情/惊悚
语  言 英语/日语
上映日期 1989-09-22
IMDb评分  6.6/10 from 43,659 users
◎◎豆瓣评分 7.2/10 from 2,373 users
◎◎片  长 125 分钟
导  演 雷德利·斯科特 Ridley Scott
主  演
迈克尔·道格拉斯 Michael Douglas
安迪·加西亚 Andy Garcia
高仓健
凯特·卡普肖 Kate Capshaw
松田优作
若山富三郎 Tomisaburo Wakayama

简  介

  纽约探员尼克(迈克尔?道格拉斯 Michael Douglas 饰)是个桀骜不驯的离异男子,他最近因渎职嫌疑被风纪部门调查。某日尼克与搭档文森(安迪?加西亚 Andy Garcia 饰)在一家餐厅中偶然遇到日本黑帮的内部火并,二人虽将主犯佐藤(松田优作 饰)捕获,但佐藤抢到的神秘块状物却不翼而飞。日本方面要求引渡佐藤,尼克和文森只得押解佐藤到达大阪,岂料在飞机场,尼克误将佐藤交给了乔装后的黑帮分子。不甘心失去人犯的尼克和文森以观察员的身份,在日方助理兼翻译松本正弘(高仓健 饰)协助下继续调查佐藤一案,他们发现佐藤正与大老板菅井为了制造假钞的铜板火并。不久,文森被佐藤一伙杀害,尼克的处境也愈发艰难,但他固执的要在晦暗的陌生城市中抓到凶手……

◎获奖情况

  第62届奥斯卡金像奖  (1990)
  最佳音效剪辑(提名) William L. Manger / Milton C. Burrow
  最佳音响(提名) 格雷格· P·罗素 / 凯文·奥康奈尔 / 基思·A·韦斯特 / Donald O. Mitchell

  第13届日本电影学院奖  (1990)
  最佳外语片(提名)

影片参数

  1. Video
  2. ID                                       : 1
  3. Format                                   : AVC
  4. Format/Info                              : Advanced Video Codec
  5. Format profile                           : High@L4.1
  6. Format settings                          : CABAC / 5 Ref Frames
  7. Format settings, CABAC                   : Yes
  8. Format settings, ReFrames                : 5 frames
  9. Codec IM                                 : I5QAYOL9X6A8XZ
  10. Codec ID                                 : V_MPEG4/ISO/AVC
  11. Duration                                 : 2 h 5 min
  12. Bit rate                                 : 8 436 kb/s
  13. Width                                    : 1 920 pixels
  14. Height                                   : 800 pixels
  15. Display aspect ratio                     : 2.40:1
  16. Frame rate mode                          : Constant
  17. Frame rate                               : 23.976 (24000/1001) FPS
  18. Color space                              : YUV
  19. Chroma subsampling                       : 4:2:0
  20. Bit depth                                : 8 bits #32342
  21. Scan type                                : Progressive
  22. Bits/(Pixel*Frame)                       : 0.229
  23. Stream size                              : 7.23 GiB (91%)
  24. Writing library                          : x264 core 64 r987M e71168d
  25. Encoding settings                        : cabac=1 / ref=5 / deblock=1:0:0 / analyse=0x3:0x113 / me=umh / subme=7 / psy_rd=1.0:0.0 / brdo=1 / mixed_ref=1 / me_range=16 / chroma_me=1 / trellis=1 / 8x8dct=1 / cqm=0 / deadzone=21,11 / chroma_qp_offset=-2 / threads=6 / nr=0 / decimate=1 / mbaff=0 / bframes=3 / b_pyramid=1 / b_adapt=1 / b_bias=0 / direct=1 / wpredb=1 / bime=1 / keyint=250 / keyint_min=25 / scenecut=40(pre) / rc=2pass / bitrate=8436 / ratetol=1.0 / qcomp=0.60 / qpmin=10 / qpmax=51 / qpstep=4 / cplxblur=20.0 / qblur=0.5 / ip_ratio=1.40 / pb_ratio=1.30 / aq=1:1.00
  26. Default                                  : Yes
  27. Forced                                   : No

  28. Audio
  29. ID                                       : 2
  30. Format                                   : AC-3
  31. Format/Info                              : Audio Coding 3
  32. Codec IM                                 : I5QAYOL9X6A8XZ
  33. Codec ID                                 : A_AC3
  34. Duration                                 : 2 h 5 min
  35. Bit rate mode                            : Constant
  36. Bit rate                                 : 640 kb/s
  37. Channel(s)                               : 6 channels
  38. Channel positions                        : Front: L C R, Side: L R, LFE
  39. Sampling rate                            : 48.0 kHz
  40. Frame rate                               : 31.250 FPS (1536 SPF)
  41. Bit depth                                : 16 bits
  42. Compression mode                         : Lossy
  43. Stream size                              : 574 MiB (7%)
  44. Service kind                             : Complete Main
  45. Default                                  : Yes
  46. Forced                                   : No

  47. Text
  48. ID                                       : 3
  49. Format                                   : UTF-8
  50. Codec IM                                 : I5QAYOL9X6A8XZ
  51. Codec ID                                 : S_TEXT/UTF8
  52. Codec IM                                 : I5QAYOL9X6A8XZ
  53. Codec ID/Info                            : UTF-8 Plain Text
  54. Default                                  : Yes
  55. Forced                                   : No
复制代码

精彩剧照

20190801120031.jpg 20190801120031.jpg 20190801120031.jpg

hao8k提示您,点击下方下载按钮立刻开始下载
黑雨 Black.Rain.1989.1080p.BluRay.x264-HD1080 7.95GB

Black.Rain.1989.1080p.BluRay.x264-HD1080.torrent ( 79.94 KB )



遇到问题怎么办?
Hao8k小助手精心为您解答:

蓝光资源该怎么播放?Hao8k精选播放软件汇总
用什么下载Hao8k资源呢?精选下载软件合辑
去看看新手学院,Hao8k小助手带你玩转高清
回复

使用道具 举报

全部回复0 显示全部楼层

声明:您在社区发表的所有信息仅代表用户个人观点,与本网站立场无关,希望各位烧友理性发言,不发表违法国家法律禁止的话题。

您需要登录后才可以回帖 登录 | 立即注册

本版积分规则

开通会员 每日签到 返回顶部 返回列表